<?xml version="1.0" standalone="no"?>
<!DOCTYPE svg PUBLIC "-//W3C//DTD SVG 1.1//EN" "http://www.w3.org/Graphics/SVG/1.1/DTD/svg11.dtd">
<svg xmlns="http://www.w3.org/2000/svg">
<metadata>Generated by Fontastic.me</metadata>
<defs>
<font id="dormio-bb" horiz-adv-x="512">
<font-face font-family="dormio-bb" units-per-em="512" ascent="480" descent="-32"/>
<missing-glyph horiz-adv-x="512" />

<glyph glyph-name="add-fill0-wght300-grad0-opsz48" unicode="&#105;" d="M244 112l0 132-132 0 0 24 132 0 0 132 24 0 0-132 132 0 0-24-132 0 0-132z"/>
<glyph glyph-name="arrow-back-fill0-wght300-grad0-opsz48" unicode="&#67;" d="M256 93l-163 163 163 163 17-17-133-134 279 0 0-24-279 0 133-134z"/>
<glyph glyph-name="check-box-fill0-wght300-grad0-opsz48" unicode="&#98;" d="M225 178l146 146-18 17-128-129-63 63-18-17z m-119-103c-9 0-16 3-22 9-6 6-9 13-9 22l0 300c0 9 3 16 9 22 6 6 13 9 22 9l300 0c9 0 16-3 22-9 6-6 9-13 9-22l0-300c0-9-3-16-9-22-6-6-13-9-22-9z m0 24l300 0c2 0 4 0 5 2 2 1 2 3 2 5l0 300c0 2 0 4-2 5-1 2-3 2-5 2l-300 0c-2 0-4 0-5-2-2-1-2-3-2-5l0-300c0-2 0-4 2-5 1-2 3-2 5-2z m-7 314l0-314z"/>
<glyph glyph-name="check-box-outline-blank-fill0-wght300-grad0-opsz48" unicode="&#100;" d="M106 75c-9 0-16 3-22 9-6 6-9 13-9 22l0 300c0 9 3 16 9 22 6 6 13 9 22 9l300 0c9 0 16-3 22-9 6-6 9-13 9-22l0-300c0-9-3-16-9-22-6-6-13-9-22-9z m0 24l300 0c2 0 4 0 5 2 2 1 2 3 2 5l0 300c0 2 0 4-2 5-1 2-3 2-5 2l-300 0c-2 0-4 0-5-2-2-1-2-3-2-5l0-300c0-2 0-4 2-5 1-2 3-2 5-2z"/>
<glyph glyph-name="check-fill0-wght300-grad0-opsz48" unicode="&#101;" d="M202 138l-112 112 17 17 95-95 202 203 18-18z"/>
<glyph glyph-name="chevron-left-fill0-wght300-grad0-opsz48" unicode="&#74;" d="M299 135l-121 122 121 121 17-18-103-103 103-104z"/>
<glyph glyph-name="chevron-right-fill0-wght300-grad0-opsz48" unicode="&#83;" d="M200 135l-17 18 103 104-103 103 17 18 121-121z"/>
<glyph glyph-name="close-fill0-wght300-grad0-opsz48" unicode="&#103;" d="M134 117l-17 17 122 122-122 122 17 17 122-122 122 122 17-17-122-122 122-122-17-17-122 122z"/>
<glyph glyph-name="downloading-fill0-wght300-grad0-opsz48" unicode="&#65;" d="M233 54c-26 3-49 10-71 22-22 12-41 26-57 45-16 18-28 38-38 62-9 23-13 48-13 74 0 52 17 97 51 136 34 38 77 60 129 65l0-24c-45-6-82-26-112-60-29-33-44-73-44-117 0-45 15-84 44-118 29-34 66-54 111-61z m23 103l-99 99 17 17 70-70 0 152 24 0 0-152 70 71 17-18z m23-103l0 24c16 3 31 7 46 13 15 6 29 14 41 24l19-18c-16-11-33-21-51-28-17-8-36-12-55-15z m88 343c-13 9-27 17-42 24-15 6-30 11-46 13l0 24c19-2 38-7 55-15 18-7 35-16 51-28z m48-267l-18 17c10 12 18 26 24 41 6 15 10 31 13 47l24 0c-2-20-7-38-15-56-7-18-16-34-28-49z m19 148c-3 16-7 31-13 47-6 15-14 28-24 41l20 17c11-16 20-32 27-50 7-18 12-36 14-55z"/>
<glyph glyph-name="download-fill0-wght300-grad0-opsz48" unicode="&#102;" d="M127 96c-9 0-16 3-22 9-6 6-9 13-9 22l0 66 24 0 0-66c0-2 1-3 2-5 2-1 3-2 5-2l258 0c2 0 3 1 5 2 1 2 2 3 2 5l0 66 24 0 0-66c0-9-3-16-9-22-6-6-13-9-22-9z m129 80l-89 89 18 17 59-59 0 197 24 0 0-197 59 59 18-17z"/>
<glyph glyph-name="delete-fill0-wght300-grad0-opsz48" unicode="&#112;" d="M148 75c-8 0-15 3-21 9-6 6-9 13-9 22l0 290-22 0 0 24 91 0 0 15 138 0 0-15 91 0 0-24-22 0 0-290c0-9-3-16-9-22-6-6-13-9-21-9z m222 321l-228 0 0-290c0-3 0-4 2-5 1-2 2-2 4-2l216 0c1 0 3 0 4 2 1 1 2 3 2 5z m-167-252l25 0 0 207-25 0z m81 0l25 0 0 207-25 0z m-142 252l0-297z"/>
<glyph glyph-name="content-copy-fill0-wght300-grad0-opsz48" unicode="&#109;" d="M115 58c-9 0-16 3-22 9-6 6-9 13-9 22l0 287 24 0 0-287c0-2 1-4 2-5 2-1 3-2 5-2l220 0 0-24z m59 59c-8 0-16 3-22 9-6 6-9 13-9 22l0 274c0 8 3 15 9 21 6 6 14 9 22 9l210 0c9 0 16-3 22-9 6-6 9-13 9-21l0-274c0-9-3-16-9-22-6-6-13-9-22-9z m0 24l210 0c2 0 3 1 5 2 1 1 1 3 1 5l0 274c0 1 0 3-1 4-2 2-3 2-5 2l-210 0c-2 0-3 0-4-2-2-1-3-3-3-4l0-274c0-2 1-4 3-5 1-1 2-2 4-2z m-7 0l0 287z"/>
<glyph glyph-name="collections-bookmark-fill0-wght300-grad0-opsz48" unicode="&#108;" d="M148 147l274 0c2 0 4 1 5 2 2 2 2 3 2 5l0 274c0 2 0 3-2 5-1 1-3 2-5 2l-28 0 0-140-45 28-46-28 0 140-155 0c-1 0-3-1-4-2-1-2-2-3-2-5l0-274c0-2 1-3 2-5 1-1 3-2 4-2z m0-24c-8 0-15 3-21 9-6 6-9 13-9 22l0 274c0 8 3 16 9 22 6 6 13 9 21 9l274 0c9 0 16-3 22-9 6-6 9-14 9-22l0-274c0-9-3-16-9-22-6-6-13-9-22-9z m-58-59c-9 0-16 3-22 9-6 6-9 13-9 22l0 298 24 0 0-298c0-2 0-3 2-5 1-1 3-2 5-2l298 0 0-24z m213 371l91 0z m-155 0l-6 0 287 0z"/>
<glyph glyph-name="cloud-upload-fill0-wght300-grad0-opsz48" unicode="&#104;" d="M135 96c-29 0-53 10-73 30-20 20-30 44-30 73 0 26 9 49 26 69 18 20 40 31 66 34 5 33 20 60 45 81 25 22 55 32 88 32 37 0 69-13 94-40 26-27 39-59 39-97l0-20 6 0c24 1 44-7 60-22 16-15 24-35 24-59 0-22-8-41-24-57-16-16-34-24-57-24l-124 0c-9 0-16 3-22 9-6 6-9 13-9 22l0 137-47-47-17 17 76 76 76-76-17-17-47 47 0-137c0-2 1-3 2-5 1-1 3-2 5-2l124 0c16 0 29 6 40 17 11 11 17 24 17 40 0 16-6 29-17 40-11 11-24 17-40 17l-33 0 0 44c0 31-11 58-32 80-21 22-48 33-79 33-31 0-57-11-79-33-21-22-32-49-32-80l-11 0c-21 0-39-7-54-23-15-15-23-34-23-56 0-22 8-40 23-56 16-15 34-23 56-23l69 0 0-24z m121 148z"/>
<glyph glyph-name="edit-fill0-wght300-grad0-opsz48" unicode="&#121;" d="M102 99l22 0 235 235-21 22-236-235z m309 253l-56 55 23 23c4 5 10 7 17 7 6 0 12-2 17-7l22-21c4-5 6-11 6-18 0-6-2-12-7-17z m-17-17l-261-260-55 0 0 55 260 260z m-45 11l-11 10 21-22z"/>
<glyph glyph-name="expand-less-fill0-wght300-grad0-opsz48" unicode="&#117;" d="M153 191l-18 18 121 120 121-120-18-18-103 104z"/>
<glyph glyph-name="expand-more-fill0-wght300-grad0-opsz48" unicode="&#120;" d="M256 191l-121 121 18 17 103-103 103 103 18-18z"/>
<glyph glyph-name="folder-copy-fill0-wght300-grad0-opsz48" unicode="&#97;" d="M63 77c-9 0-16 3-22 9-6 6-9 14-9 22l0 265 24 0 0-265c0-2 1-4 2-5 1-1 3-2 5-2l365 0 0-24z m59 59c-9 0-16 3-22 9-6 6-9 13-9 22l0 261c0 8 3 16 9 22 6 6 13 9 22 9l134 0 27-27 166 0c9 0 16-3 22-9 6-6 9-13 9-22l0-234c0-9-3-16-9-22-6-6-13-9-22-9z m0 25l327 0c2 0 4 0 5 1 1 2 2 3 2 5l0 234c0 2-1 4-2 5-1 1-3 2-5 2l-176 0-27 27-124 0c-2 0-4-1-5-2-1-1-2-3-2-5l0-261c0-2 1-3 2-5 1-1 3-1 5-1z m-7 0l0 274z"/>
<glyph glyph-name="folder-fill0-wght300-grad0-opsz48" unicode="&#99;" d="M84 96c-8 0-15 3-21 9-6 7-9 14-9 22l0 250c0 8 3 15 9 22 6 6 13 9 21 9l146 0 27-27 171 0c8 0 16-3 22-9 6-6 9-13 9-22l0-223c0-8-3-15-9-22-6-6-14-9-22-9z m-6 281l0-250c0-2 0-4 2-5 1-1 2-2 4-2l344 0c2 0 4 1 5 2 1 1 2 3 2 5l0 223c0 2-1 4-2 5-1 1-3 2-5 2l-182 0-26 26-136 0c-2 0-3 0-4-1-2-2-2-3-2-5z m0 0l0 6 0-263z"/>
<glyph glyph-name="group-fill0-wght300-grad0-opsz48" unicode="&#70;" d="M37 100l0 41c0 11 3 21 9 29 6 9 14 16 24 20 24 10 45 18 64 23 19 5 40 7 64 7 23 0 44-2 63-7 19-5 40-13 63-23 11-4 19-11 25-20 5-8 8-18 8-29l0-41z m356 0l0 40c0 19-5 35-14 47-9 13-20 23-34 32 18-3 36-7 53-12 17-4 32-9 43-16 10-5 19-13 25-21 6-9 9-19 9-30l0-40z m-195 163c-21 0-38 7-51 20-13 13-20 30-20 51 0 20 7 37 20 51 13 13 30 19 51 19 20 0 37-6 50-19 14-14 20-31 20-51 0-21-6-38-20-51-13-13-30-20-50-20z m168 71c0-21-7-38-20-51-13-13-30-20-51-20-2 0-5 0-7 0-3 1-6 1-8 2 7 9 13 19 17 30 4 12 6 25 6 39 0 14-2 26-6 37-4 11-10 22-17 31 2 1 5 1 7 2 3 0 6 0 8 0 21 0 38-6 51-19 13-14 20-31 20-51z m-304-210l271 0 0 17c0 5-1 11-4 16-4 5-8 9-14 12-23 10-42 17-60 21-17 4-36 6-57 6-22 0-41-2-58-6-17-4-37-11-59-21-7-3-11-7-14-12-4-5-5-11-5-16z m135 163c14 0 25 4 34 13 9 9 13 20 13 34 0 13-4 24-13 33-9 9-20 13-34 13-13 0-24-4-33-13-9-9-13-20-13-33 0-14 4-25 13-34 9-9 20-13 33-13z m0-163z m0 210z"/>
<glyph glyph-name="info-fill0-wght300-grad0-opsz48" unicode="&#111;" d="M245 155l24 0 0 122-24 0z m11 156c4 0 7 2 10 4 3 3 4 7 4 11 0 4-1 8-4 10-2 3-6 4-10 4-4 0-8-1-10-4-3-2-4-6-4-10 0-4 1-8 4-11 2-2 6-4 10-4z m0-258c-28 0-54 6-79 16-24 11-46 25-64 44-19 18-33 40-44 64-10 25-16 51-16 79 0 28 6 54 16 79 11 25 25 46 44 64 18 19 40 33 64 44 25 10 51 16 79 16 28 0 54-6 79-16 25-11 46-25 64-44 19-18 33-39 44-64 10-25 16-51 16-79 0-28-6-54-16-79-11-24-25-46-44-64-18-19-39-33-64-44-25-10-51-16-79-16z m1 24c49 0 91 18 126 53 34 34 52 77 52 127 0 49-18 91-52 126-35 34-77 52-127 52-49 0-92-18-126-52-35-35-53-77-53-127 0-49 18-92 53-126 34-35 77-53 127-53z m-1 179z"/>
<glyph glyph-name="space-dashboard-fill0-wght300-grad0-opsz48" unicode="&#118;" d="M106 75c-9 0-16 3-22 9-6 6-9 13-9 22l0 300c0 9 3 16 9 22 6 6 13 9 22 9l300 0c9 0 16-3 22-9 6-6 9-13 9-22l0-300c0-9-3-16-9-22-6-6-13-9-22-9z m0 24l138 0 0 314-138 0c-2 0-4 0-5-2-2-1-2-3-2-5l0-300c0-2 0-4 2-5 1-2 3-2 5-2z m162 0l138 0c2 0 4 0 5 2 2 1 2 3 2 5l0 151-145 0z m0 182l145 0 0 125c0 2 0 4-2 5-1 2-3 2-5 2l-138 0z"/>
<glyph glyph-name="search-fill0-wght300-grad0-opsz48" unicode="&#106;" d="M422 74l-139 138c-10-10-23-17-37-22-14-5-29-8-44-8-36 0-67 13-92 38-25 25-37 56-37 91 0 36 12 66 37 91 25 25 56 38 92 38 36 0 66-13 91-38 25-25 38-55 38-91 0-14-3-29-8-43-5-14-13-27-22-39l138-138z m-220 132c29 0 53 11 74 31 20 21 30 45 30 74 0 30-10 54-30 75-21 20-45 30-74 30-29 0-54-10-75-30-20-21-30-45-30-75 0-29 10-53 30-74 21-20 46-31 75-31z"/>
<glyph glyph-name="person-fill0-wght300-grad0-opsz48" unicode="&#71;" d="M256 263c-21 0-38 7-51 20-13 13-20 30-20 51 0 20 7 37 20 51 13 13 30 19 51 19 21 0 38-6 51-19 13-14 20-31 20-51 0-21-7-38-20-51-13-13-30-20-51-20z m-160-163l0 41c0 11 3 21 9 30 6 8 14 15 24 19 22 10 44 18 65 23 21 5 41 7 62 7 21 0 41-2 62-7 21-6 43-13 65-23 10-5 18-11 24-20 6-8 9-18 9-29l0-41z m24 24l272 0 0 17c0 5-2 10-5 16-4 5-9 9-14 12-21 10-41 17-60 21-18 4-37 6-57 6-20 0-39-2-58-6-19-4-39-11-59-21-6-3-10-7-14-12-3-6-5-11-5-16z m136 163c13 0 24 4 33 13 9 9 13 20 13 34 0 13-4 24-13 33-9 9-20 13-33 13-13 0-24-4-33-13-9-9-13-20-13-33 0-14 4-25 13-34 9-9 20-13 33-13z m0 47z m0-210z"/>
<glyph glyph-name="open-in-full-fill0-wght300-grad0-opsz48" unicode="&#113;" d="M69 69l0 152 24 0 0-111 309 309-111 0 0 24 152 0 0-152-24 0 0 111-309-309 111 0 0-24z"/>
<glyph glyph-name="logout-fill0-wght300-grad0-opsz48" unicode="&#110;" d="M108 64c-9 0-16 3-22 9-6 6-9 13-9 22l0 311c0 9 3 16 9 22 6 6 13 9 22 9l147 0 0-24-147 0c-2 0-4 0-5-2-1-1-2-3-2-5l0-311c0-2 1-3 2-5 1-1 3-2 5-2l147 0 0-24z m246 106l-17 17 52 51-188 0 0 25 187 0-52 52 18 17 81-82z"/>
<glyph glyph-name="publish-fill0-wght300-grad0-opsz48" unicode="&#66;" d="M244 96l0 197-59-59-18 17 89 89 89-89-18-17-59 59 0-197z m-148 227l0 66c0 8 3 16 9 22 6 6 13 9 22 9l258 0c9 0 16-3 22-9 6-6 9-14 9-22l0-66-24 0 0 66c0 2-1 3-2 5-2 1-3 2-5 2l-258 0c-2 0-3-1-5-2-1-2-2-3-2-5l0-66z"/>
<glyph glyph-name="zoom-out-map-fill0-wght300-grad0-opsz48" unicode="&#69;" d="M75 75l0 113 24 0 0-72 81 81 17-17-81-81 72 0 0-24z m249 0l0 24 72 0-81 80 18 18 80-81 0 72 24 0 0-113z m-145 240l-80 81 0-72-24 0 0 113 113 0 0-24-72 0 81-80z m154 0l-18 18 81 80-72 0 0 24 113 0 0-113-24 0 0 72z"/>
<glyph glyph-name="visibility-off-fill0-wght300-grad0-opsz48" unicode="&#68;" d="M331 231l-19 19c8 24 3 44-15 60-18 16-37 20-58 13l-18 18c5 3 10 5 16 7 6 1 12 2 19 2 23 0 43-8 59-24 16-17 24-36 24-59 0-7-1-13-2-20-2-6-4-11-6-16z m68-67l-17 16c17 12 31 26 43 41 13 14 22 30 28 46-17 38-44 69-79 91-34 23-73 34-114 34-14 0-28-1-42-4-14-2-25-5-35-9l-18 19c12 5 26 10 43 13 17 3 34 5 50 5 48 0 92-14 132-41 40-27 70-63 89-108-9-21-20-39-33-57-13-17-29-32-47-46z m32-115l-86 85c-11-5-25-9-40-12-16-3-32-5-49-5-49 0-94 14-134 41-40 27-70 63-89 109 8 18 18 36 31 54 14 17 29 33 47 47l-66 65 17 18 385-384z m-304 302c-13-9-26-22-40-38-13-16-23-31-29-46 18-39 45-69 81-92 35-22 75-34 120-34 13 0 26 1 39 4 13 2 23 4 28 7l-37 38c-4-2-9-3-16-5-6-1-12-2-17-2-23 0-43 8-59 24-16 16-24 36-24 60 0 5 0 11 2 17 1 6 2 11 4 15z m156-75z m-56-29z"/>
<glyph glyph-name="visibility-fill0-wght300-grad0-opsz48" unicode="&#107;" d="M256 183c23 0 43 9 59 25 16 16 24 36 24 59 0 23-8 42-24 59-17 16-36 24-59 24-23 0-43-8-59-25-16-16-24-36-24-58 0-23 8-43 24-59 17-16 36-25 59-25z m0 24c-17 0-31 6-42 18-12 11-17 25-17 42 0 16 6 30 17 42 12 11 26 17 42 17 17 0 31-6 42-17 12-12 17-26 17-42 0-17-6-31-17-42-12-12-26-18-42-18z m0-90c-49 0-94 14-133 41-40 28-70 64-90 109 20 44 50 81 90 108 39 27 84 41 133 41 49 0 94-14 133-41 40-27 70-64 90-108-20-45-50-81-90-109-39-27-84-41-133-41z m0 150z m0-126c42 0 81 12 117 34 35 23 62 54 80 92-18 38-45 68-80 91-36 23-75 34-117 34-42 0-81-11-117-34-35-23-62-53-81-91 19-38 46-69 81-92 36-22 75-34 117-34z"/>
<glyph glyph-name="emergency-home-fill0-wght300-grad0-opsz48" unicode="&#90;" d="M256 52c-4 0-8 1-11 3-4 1-7 3-10 6l-174 174c-3 3-5 6-6 10-2 3-3 7-3 11 0 4 1 8 3 11 1 4 3 7 6 10l174 174c3 3 6 5 10 7 3 1 7 2 11 2 4 0 8-1 11-2 4-2 7-4 10-7l174-174c3-3 5-6 7-10 1-3 2-7 2-11 0-4-1-8-2-11-2-4-4-7-7-10l-174-174c-3-3-6-5-10-6-3-2-7-3-11-3z m5 27l172 172c1 1 2 3 2 5 0 2-1 4-2 5l-172 172c-1 1-3 2-5 2-2 0-4-1-5-2l-172-172c-1-1-2-3-2-5 0-2 1-4 2-5l172-172c1-1 3-2 5-2 2 0 4 1 5 2z m-17 154l24 0 0 120-24 0z m12-52c4 0 7 1 9 4 3 2 4 6 4 9 0 4-1 7-4 9-2 3-5 4-9 4-4 0-7-1-9-4-3-2-4-5-4-9 0-3 1-7 4-9 2-3 5-4 9-4z m0 75z"/>
<glyph glyph-name="share-fill0-wght300-grad0-opsz48" unicode="&#114;" d="M387 48c-16 0-29 6-40 17-11 11-16 24-16 40 0 2 0 5 0 9 1 3 2 6 3 9l-167 97c-5-6-11-11-18-15-8-4-15-6-23-6-16 0-29 6-40 17-11 11-17 24-17 40 0 16 6 29 17 40 11 11 24 17 40 17 8 0 15-2 23-6 7-3 13-8 18-14l167 96c-1 3-2 6-3 9 0 4 0 7 0 9 0 16 5 29 16 40 11 11 24 17 40 17 15 0 29-6 40-17 11-11 16-24 16-39 0-16-5-29-16-40-11-11-25-17-40-17-9 0-16 2-24 5-7 3-13 7-18 13l-166-94c1-3 2-6 2-9 1-4 1-7 1-10 0-3 0-6-1-9 0-3-1-6-2-9l166-95c5 5 11 10 18 13 7 3 15 5 24 5 15 0 29-6 40-17 11-11 16-24 16-39 0-16-5-29-16-40-11-11-25-17-40-17z m0 327c9 0 16 4 22 10 7 6 10 14 10 23 0 9-3 16-10 23-6 6-13 9-22 9-9 0-17-3-23-9-6-7-9-14-9-24 0-8 3-16 9-22 6-6 14-10 23-10z m-261-151c9 0 16 3 23 9 6 7 9 14 9 23 0 9-3 16-9 23-7 6-14 9-24 9-9 0-16-3-22-9-7-7-10-14-10-23 0-9 3-16 10-23 6-6 14-9 23-9z m261-152c9 0 16 3 22 9 7 7 10 14 10 24 0 8-3 16-10 22-6 6-13 10-22 10-9 0-17-4-23-10-6-6-9-14-9-23 0-9 3-16 9-23 6-6 14-9 23-9z m0 335z m-261-151z m261-151z"/>
<glyph glyph-name="arrow-forward-fill0-wght300-grad0-opsz48" unicode="&#115;" d="M256 93l-17 18 133 133-279 0 0 24 279 0-133 133 17 18 163-163z"/>
<glyph glyph-name="settings-fill0-wght300-grad0-opsz48" unicode="&#119;" d="M214 53l-10 64c-7 3-15 6-23 11-9 5-16 10-22 15l-60-27-42 75 53 40c0 4-1 8-1 12-1 5-1 9-1 13 0 4 0 8 1 12 0 4 1 9 1 13l-53 40 42 74 59-26c7 5 14 10 22 14 8 5 16 9 24 11l10 65 84 0 10-65c8-3 15-6 23-11 8-4 15-9 22-14l60 26 42-74-54-40c1-4 1-8 2-13 0-4 0-8 0-12 0-4 0-7 0-12-1-4-1-8-2-13l54-40-42-75-60 27c-7-5-14-10-22-15-8-5-15-8-23-10l-10-65z m41 143c17 0 31 6 43 17 12 12 18 26 18 43 0 17-6 31-18 43-12 11-26 17-43 17-16 0-30-6-42-17-12-12-18-26-18-43 0-17 6-31 18-43 12-11 26-17 42-17z m0 24c-9 0-18 4-25 11-7 7-10 15-10 25 0 10 3 18 10 25 7 7 16 11 25 11 10 0 19-4 26-11 7-7 10-15 10-25 0-10-3-18-10-25-7-7-16-11-26-11z m1 36z m-23-179l45 0 8 60c12 3 22 7 32 13 10 6 19 13 28 21l56-24 21 38-49 36c1 7 2 13 3 18 1 6 2 11 2 17 0 6-1 12-1 17-1 5-2 11-4 17l49 37-21 38-56-24c-7 8-16 16-27 22-11 7-22 11-33 12l-7 60-46 0-7-60c-12-2-22-6-32-12-10-5-20-13-28-22l-56 24-21-38 49-36c-2-6-3-11-4-17-1-6-1-12-1-18 0-6 0-12 1-18 1-5 2-11 4-17l-49-36 21-38 55 24c9-9 18-16 28-21 10-6 21-10 33-13z"/>
<glyph glyph-name="notifications-fill0-wght300-grad0-opsz48" unicode="&#122;" d="M91 109l0 25 44 0 0 165c0 29 9 55 27 77 17 23 40 37 69 42l0 16c0 7 2 12 7 17 5 4 11 7 18 7 7 0 13-3 18-7 5-5 7-10 7-17l0-16c29-5 52-19 70-42 18-22 27-48 27-77l0-165 43 0 0-25z m165 153z m0-215c-10 0-19 4-27 11-8 8-11 17-11 27l76 0c0-10-3-19-11-27-7-7-16-11-27-11z m-97 87l194 0 0 165c0 27-9 50-28 69-19 19-41 28-68 28-28 0-51-9-70-28-19-19-28-42-28-69z"/>
<glyph glyph-name="upload-fill0-wght300-grad0-opsz48" unicode="&#116;" d="M127 96c-9 0-16 3-22 9-6 6-9 13-9 22l0 66 24 0 0-66c0-2 1-3 2-5 2-1 3-2 5-2l258 0c2 0 3 1 5 2 1 2 2 3 2 5l0 66 24 0 0-66c0-9-3-16-9-22-6-6-13-9-22-9z m117 80l0 197-59-59-18 17 89 89 89-89-18-17-59 59 0-197z"/>
<glyph glyph-name="lock-fill0-wght300-grad0-opsz48" unicode="&#72;" d="M127 53c-9 0-16 3-22 9-6 6-9 14-9 22l0 214c0 8 3 15 9 21 6 6 13 9 22 9l37 0 0 49c0 26 9 48 27 65 18 18 39 27 65 27 26 0 47-9 65-27 18-17 27-39 27-65l0-49 37 0c9 0 16-3 22-9 6-6 9-13 9-21l0-214c0-8-3-16-9-22-6-6-13-9-22-9z m0 25l258 0c2 0 4 0 5 1 1 2 2 3 2 5l0 214c0 1-1 3-2 4-1 1-3 2-5 2l-258 0c-2 0-4-1-5-2-1-1-2-3-2-4l0-214c0-2 1-3 2-5 1-1 3-1 5-1z m129 77c10 0 19 3 26 10 7 7 10 15 10 25 0 10-3 18-11 26-7 7-15 11-25 11-10 0-19-4-26-11-7-8-10-17-10-26 0-10 3-18 11-25 7-7 15-10 25-10z m-68 173l136 0 0 49c0 19-7 35-20 48-13 14-29 20-48 20-19 0-35-6-48-20-13-13-20-29-20-48z m-68-250l0 226z"/>
<glyph glyph-name="lock-open-fill0-wght300-grad0-opsz48" unicode="&#73;" d="M127 328l197 0 0 49c0 19-7 35-20 48-13 14-29 20-48 20-19 0-35-6-48-20-13-13-20-29-20-48l-24 0c0 26 9 48 27 65 18 18 39 27 65 27 26 0 47-9 65-27 18-17 27-39 27-65l0-49 37 0c9 0 16-3 22-9 6-6 9-13 9-21l0-214c0-8-3-16-9-22-6-6-13-9-22-9l-258 0c-9 0-16 3-22 9-6 6-9 14-9 22l0 214c0 8 3 15 9 21 6 6 13 9 22 9z m0-250l258 0c2 0 4 0 5 1 1 2 2 3 2 5l0 214c0 1-1 3-2 4-1 1-3 2-5 2l-258 0c-2 0-4-1-5-2-1-1-2-3-2-4l0-214c0-2 1-3 2-5 1-1 3-1 5-1z m129 77c10 0 19 3 26 10 7 7 10 15 10 25 0 10-3 18-11 26-7 7-15 11-25 11-10 0-19-4-26-11-7-8-10-17-10-26 0-10 3-18 11-25 7-7 15-10 25-10z m-136-77l0 226z"/>
<glyph glyph-name="change" unicode="&#75;" d="M171 175l-82 81 82 81 26-26-55-55 55-55z m170 0l-26 26 55 55-55 55 26 26 82-81z m-253-132c-13 0-23 4-32 13-9 9-13 19-13 32l0 93 37 0 0-93c0-2 1-4 3-5 1-2 3-3 5-3l93 0 0-37z m243 0l0 37 93 0c2 0 4 1 5 3 2 1 3 3 3 5l0 93 37 0 0-93c0-13-4-23-13-32-9-9-19-13-32-13z m-288 288l0 93c0 13 4 23 13 32 9 9 19 13 32 13l93 0 0-37-93 0c-2 0-4-1-5-3-2-1-3-3-3-5l0-93z m389 0l0 93c0 2-1 4-3 5-1 2-3 3-5 3l-93 0 0 37 93 0c13 0 23-4 32-13 9-9 13-19 13-32l0-93z"/>
</font>
</defs>
</svg>
