<?xml version="1.0" standalone="no"?>
<!DOCTYPE svg PUBLIC "-//W3C//DTD SVG 1.1//EN" "http://www.w3.org/Graphics/SVG/1.1/DTD/svg11.dtd" >
<svg xmlns="http://www.w3.org/2000/svg" xmlns:xlink="http://www.w3.org/1999/xlink" version="1.1">
<metadata>
Created by FontForge 20170731 at Thu Dec  8 15:23:22 2022
 By Aleksey,,,
(c) 2011 Klim Type Foundry. All rights reserved.
</metadata>
<defs>
<font id="Calibre-Black" horiz-adv-x="1024" >
  <font-face 
    font-family="Calibre Black"
    font-weight="900"
    font-stretch="normal"
    units-per-em="2048"
    panose-1="2 11 10 3 3 2 2 6 2 3"
    ascent="1536"
    descent="-512"
    x-height="930"
    cap-height="1257"
    bbox="-246 -506 2044 1925"
    underline-thickness="61"
    underline-position="-204"
    unicode-range="U+0020-FB02"
  />
<missing-glyph horiz-adv-x="1245" 
 />
    <glyph glyph-name="f_f" unicode="ff" horiz-adv-x="1355" 
d="M1335 1323v-309q-27 12 -63 12q-48 0 -75.5 -23.5t-27.5 -68.5v-4h166v-299h-166v-631h-387v631h-250v-631h-387v631h-125v299h125v12q0 181 102 287t292 106q89 0 159 -24v-310q-29 13 -63 13q-45 0 -74 -20.5t-29 -59.5v-4h250v24q0 181 102 287.5t292 106.5
q86 0 159 -25z" />
    <glyph glyph-name=".notdef" horiz-adv-x="1245" 
 />
    <glyph glyph-name=".null" horiz-adv-x="0" 
 />
    <glyph glyph-name="nonmarkingreturn" horiz-adv-x="682" 
 />
    <glyph glyph-name="space" unicode=" " horiz-adv-x="382" 
 />
    <glyph glyph-name="exclam" unicode="!" horiz-adv-x="536" 
d="M47 190q0 87 64 146t157 59t157 -59t64 -146t-64 -145.5t-157 -58.5t-157 58.5t-64 145.5zM115 436l-84 821h475l-84 -821h-307z" />
    <glyph glyph-name="quotedbl" unicode="&#x22;" horiz-adv-x="790" 
d="M68 705v552h290v-552h-290zM432 705v552h291v-552h-291z" />
    <glyph glyph-name="numbersign" unicode="#" horiz-adv-x="1341" 
d="M1206 543l-53 -232h-205l-74 -311h-262l74 311h-184l-74 -311h-260l74 311h-201l55 232h201l41 172h-203l53 231h205l74 311h262l-76 -311h185l75 311h261l-74 -311h200l-55 -231h-201l-40 -172h202zM598 715l-41 -172h184l41 172h-184z" />
    <glyph glyph-name="dollar" unicode="$" horiz-adv-x="1091" 
d="M395 -168v191q-150 32 -243.5 125t-118.5 237h387q28 -80 139 -80q42 0 71 19.5t29 50.5q0 35 -21.5 49.5t-74.5 26.5l-203 47q-145 34 -227 115.5t-82 234.5q0 148 93.5 250.5t250.5 136.5v186h307v-190q139 -34 221.5 -126.5t106.5 -227.5h-366q-37 73 -127 73
q-46 0 -74.5 -18t-28.5 -47q0 -27 16.5 -40t49.5 -22l233 -59q160 -42 237 -130t77 -233q0 -151 -94.5 -250t-250.5 -131v-188h-307z" />
    <glyph glyph-name="percent" unicode="%" horiz-adv-x="1415" 
d="M190 0l838 1257h197l-838 -1257h-197zM254 965q0 -38 28 -66.5t66 -28.5q41 0 71 28.5t30 66.5q0 41 -30 70.5t-71 29.5q-38 0 -66 -29.5t-28 -70.5zM1374 293q0 -130 -89.5 -221.5t-217.5 -91.5q-131 0 -222 91t-91 222q0 128 91.5 217.5t221.5 89.5q127 0 217 -90
t90 -217zM662 965q0 -128 -92 -218t-222 -90q-127 0 -217 90t-90 218q0 130 89.5 221.5t217.5 91.5q131 0 222.5 -91.5t91.5 -221.5zM1161 293q0 38 -28 66t-66 28q-41 0 -70.5 -28t-29.5 -66q0 -41 29.5 -70.5t70.5 -29.5q38 0 66 29.5t28 70.5z" />
    <glyph glyph-name="ampersand" unicode="&#x26;" horiz-adv-x="1249" 
d="M1081 895h-372q-3 34 -24 56t-58 22q-38 0 -58 -21.5t-20 -54.5q0 -21 13 -46.5t24 -40t37 -46.5l198 -244q27 79 27 160h336q0 -237 -146 -424l211 -256h-415l-46 51q-139 -71 -286 -71q-212 0 -336.5 106.5t-124.5 298.5q0 100 48 187t132 139q-49 83 -49 188
q0 171 126 275t329 104q196 0 316 -106.5t138 -276.5zM510 274q28 0 74 11l-162 184q-29 -36 -29 -84q0 -47 30.5 -79t86.5 -32z" />
    <glyph glyph-name="quotesingle" unicode="'" horiz-adv-x="446" 
d="M68 705v552h311v-552h-311z" />
    <glyph glyph-name="parenleft" unicode="(" horiz-adv-x="702" 
d="M61 580q0 295 160.5 494.5t440.5 256.5v-348q-123 -49 -188.5 -144t-65.5 -259t65.5 -259.5t188.5 -144.5v-348q-279 57 -440 257t-161 495z" />
    <glyph glyph-name="parenright" unicode=")" horiz-adv-x="702" 
d="M641 580q0 -295 -160.5 -495t-439.5 -257v348q123 49 188.5 144.5t65.5 259.5t-65.5 259t-188.5 144v348q279 -57 439.5 -256.5t160.5 -494.5z" />
    <glyph glyph-name="asterisk" unicode="*" horiz-adv-x="700" 
d="M176 1024l-135 78l88 151l133 -77v155h176v-155l133 77l88 -151l-135 -78l135 -78l-88 -151l-133 77v-155h-176v155l-133 -77l-88 151z" />
    <glyph glyph-name="plus" unicode="+" horiz-adv-x="1128" 
d="M424 1100h281v-346h346v-281h-346v-346h-281v346h-346v281h346v346z" />
    <glyph glyph-name="comma" unicode="," horiz-adv-x="485" 
d="M20 -205l156 240q-63 13 -107 63t-44 125q0 89 62.5 147t156.5 58q91 0 154 -60.5t63 -166.5q0 -107 -88 -240l-109 -166h-244z" />
    <glyph glyph-name="hyphen" unicode="-" horiz-adv-x="628" 
d="M68 377v317h493v-317h-493z" />
    <glyph glyph-name="period" unicode="." horiz-adv-x="485" 
d="M25 207q0 95 63 158t154 63q93 0 156 -63t63 -158q0 -94 -63.5 -157.5t-155.5 -63.5q-91 0 -154 64t-63 157z" />
    <glyph glyph-name="slash" unicode="/" horiz-adv-x="849" 
d="M10 -172l508 1503h322l-508 -1503h-322z" />
    <glyph glyph-name="zero" unicode="0" horiz-adv-x="1167" 
d="M584 -20q-243 0 -396 181t-153 468t153 468t396 181t396 -181t153 -468t-153 -468t-396 -181zM584 934q-58 0 -97 -45.5t-54 -111t-15 -148.5t15 -148.5t54 -111t97 -45.5q44 0 76.5 25.5t51 69.5t27.5 96.5t9 113.5t-9 113.5t-27.5 96.5t-51 69.5t-76.5 25.5z" />
    <glyph glyph-name="one" unicode="1" horiz-adv-x="798" 
d="M696 1257v-1257h-385v844l-291 -139v368l400 184h276z" />
    <glyph glyph-name="two" unicode="2" horiz-adv-x="1030" 
d="M578 840q0 36 -21.5 59t-54.5 23q-36 0 -57 -23t-23 -53h-410q9 88 46.5 166t98.5 137.5t149.5 94t193.5 34.5q217 0 349 -112.5t132 -293.5q0 -60 -17 -114t-52.5 -102.5t-71 -84.5t-90.5 -84l-170 -147h397v-340h-957v254l467 438q49 46 70 78t21 70z" />
    <glyph glyph-name="three" unicode="3" 
d="M403 498v270h66q129 0 129 94q0 39 -24 63.5t-66 24.5q-44 0 -72.5 -30t-34.5 -74h-374q20 183 152.5 307.5t346.5 124.5q204 0 326.5 -111.5t122.5 -294.5q0 -68 -36 -138t-85 -105q63 -32 98 -98.5t35 -151.5q0 -176 -127.5 -287.5t-339.5 -111.5q-226 0 -360 119.5
t-146 320.5h398q3 -50 28.5 -79.5t73.5 -29.5q40 0 67 25.5t27 66.5q0 95 -127 95h-78z" />
    <glyph glyph-name="four" unicode="4" horiz-adv-x="1081" 
d="M729 1257l-283 -720h119v163h334v-163h152v-320h-152v-217h-334v217h-534v297l327 743h371z" />
    <glyph glyph-name="five" unicode="5" horiz-adv-x="1042" 
d="M526 528q-54 0 -108 -47h-326v776h813v-333h-495v-121q80 33 174 33q196 0 309 -115t113 -301q0 -201 -129.5 -320.5t-346.5 -119.5q-224 0 -356.5 119.5t-144.5 320.5h387q3 -51 35 -81t84 -30q45 0 74.5 30t29.5 79q0 47 -30 78.5t-83 31.5z" />
    <glyph glyph-name="six" unicode="6" horiz-adv-x="1075" 
d="M416 420q0 -55 38 -91t95 -36q56 0 94.5 36t38.5 91q0 56 -38.5 92.5t-94.5 36.5q-57 0 -95 -36t-38 -93zM1024 889h-367q-21 65 -96 65q-66 0 -104 -51.5t-41 -122.5v-2q60 53 198 53q189 0 304.5 -113t115.5 -288q0 -198 -134 -324t-353 -126q-123 0 -223.5 50.5
t-165.5 137.5q-121 159 -121 432q0 198 59.5 350t178.5 240t282 88q192 0 316 -106t151 -283z" />
    <glyph glyph-name="seven" unicode="7" horiz-adv-x="974" 
d="M934 1001l-352 -1001h-400l328 920h-490v337h914v-256z" />
    <glyph glyph-name="eight" unicode="8" horiz-adv-x="1060" 
d="M530 281q51 0 84 28.5t33 71.5q0 44 -33 72t-84 28t-83.5 -28t-32.5 -72q0 -43 32.5 -71.5t83.5 -28.5zM530 791q49 0 80 28t31 70q0 43 -31 71.5t-80 28.5t-79.5 -28.5t-30.5 -71.5q0 -42 30.5 -70t79.5 -28zM530 -20q-138 0 -250 43t-179.5 128.5t-67.5 198.5
q0 100 51 174t135 107q-72 40 -108.5 110t-36.5 156q0 120 64 208t166 130.5t226 42.5t226 -42.5t166.5 -130.5t64.5 -208q0 -86 -36.5 -156t-108.5 -110q84 -33 135 -107t51 -174q0 -113 -67.5 -198.5t-180 -128.5t-250.5 -43z" />
    <glyph glyph-name="nine" unicode="9" horiz-adv-x="1075" 
d="M659 838q0 55 -38 91t-95 36q-56 0 -94.5 -36t-38.5 -91q0 -56 38.5 -92.5t94.5 -36.5q57 0 95 36t38 93zM51 369h367q21 -66 96 -66q66 0 104 51.5t41 122.5v2q-60 -53 -198 -53q-189 0 -304.5 113t-115.5 288q0 199 134 325t353 126q123 0 224 -50.5t166 -137.5
q120 -158 120 -433q0 -198 -59.5 -350t-178.5 -239.5t-282 -87.5q-192 0 -316 106t-151 283z" />
    <glyph glyph-name="colon" unicode=":" horiz-adv-x="485" 
d="M25 207q0 95 63 158t154 63q93 0 156 -63t63 -158q0 -94 -63.5 -157.5t-155.5 -63.5q-91 0 -154 64t-63 157zM25 709q0 95 63 158t154 63q93 0 156 -63t63 -158q0 -94 -63.5 -158t-155.5 -64q-91 0 -154 64t-63 158z" />
    <glyph glyph-name="semicolon" unicode=";" horiz-adv-x="485" 
d="M20 -205l156 240q-63 13 -107 63t-44 125q0 89 62.5 147t156.5 58q91 0 154 -60.5t63 -166.5q0 -107 -88 -240l-109 -166h-244zM25 709q0 95 63 158t154 63q93 0 156 -63t63 -158q0 -94 -63.5 -158t-155.5 -64q-91 0 -154 64t-63 158z" />
    <glyph glyph-name="less" unicode="&#x3c;" horiz-adv-x="872" 
d="M57 438v340l742 314v-310l-475 -174l475 -174v-309z" />
    <glyph glyph-name="equal" unicode="=" horiz-adv-x="1169" 
d="M98 287v248h973v-248h-973zM98 700v250h973v-250h-973z" />
    <glyph glyph-name="greater" unicode="&#x3e;" horiz-adv-x="872" 
d="M815 778v-340l-741 -313v309l475 174l-475 174v310z" />
    <glyph glyph-name="question" unicode="?" horiz-adv-x="1013" 
d="M313 190q0 88 64.5 146.5t157.5 58.5q96 0 160.5 -57.5t64.5 -147.5q0 -87 -64.5 -145.5t-160.5 -58.5q-93 0 -157.5 58.5t-64.5 145.5zM973 893q0 -54 -21.5 -108t-44 -86t-68.5 -88t-63 -79q-40 -54 -43 -96h-387q2 43 19.5 83.5t68.5 107.5q14 18 41.5 52.5t38.5 49
t26 37.5t20 41t5 37q0 34 -20 55t-49 21q-34 0 -55 -22.5t-23 -51.5h-398q10 89 45 166t95 137t151.5 94.5t204.5 34.5q203 0 330 -104t127 -281z" />
    <glyph glyph-name="at" unicode="@" horiz-adv-x="1536" 
d="M1200 811l-90 -512q-12 -74 45 -74q89 0 138.5 87t49.5 249q0 141 -70 244.5t-188.5 155t-269.5 51.5q-272 0 -441 -172.5t-169 -450.5q0 -123 38 -220.5t98 -158t142.5 -100t164 -55t169.5 -15.5q235 0 459 99v-158q-83 -41 -205 -68.5t-254 -27.5q-123 0 -236 25.5
t-214 81t-175 136t-117.5 199t-43.5 262.5q0 215 97 392t277.5 282.5t409.5 105.5q150 0 279.5 -46.5t219 -127.5t140.5 -193.5t51 -240.5q0 -244 -122.5 -376t-317.5 -132q-73 0 -139 26t-107 75q-69 -93 -209 -93q-133 0 -206.5 89.5t-73.5 230.5q0 184 106 314t277 130
q54 0 103 -20.5t71 -52.5l10 59h303zM817 371l25 145q-4 23 -26 37t-52 14q-51 0 -87 -43t-36 -112q0 -43 21.5 -69t64.5 -26q62 0 90 54z" />
    <glyph glyph-name="A" unicode="A" horiz-adv-x="1363" 
d="M475 1257h414l475 -1257h-401l-66 182h-442l-66 -182h-389zM676 793l-105 -289h209z" />
    <glyph glyph-name="B" unicode="B" horiz-adv-x="1146" 
d="M909 649q91 -30 148 -112t57 -189q0 -167 -108.5 -257.5t-305.5 -90.5h-632v1257h598q198 0 305.5 -87.5t107.5 -254.5q0 -97 -48.5 -168.5t-121.5 -97.5zM442 776h166q50 0 76.5 21t26.5 61q0 80 -103 80h-166v-162zM442 492v-170h193q46 0 73 23.5t27 60.5
q0 40 -26.5 63t-73.5 23h-193z" />
    <glyph glyph-name="C" unicode="C" horiz-adv-x="1241" 
d="M29 629q0 187 78.5 335t220.5 231t323 83q238 0 382.5 -127t178.5 -330h-397q-18 52 -60 81.5t-104 29.5q-105 0 -164 -84.5t-59 -218.5q0 -133 59.5 -218t163.5 -85q62 0 104.5 29.5t59.5 82.5h397q-16 -98 -59.5 -180.5t-112 -145t-168.5 -97.5t-221 -35
q-181 0 -323 83t-220.5 231t-78.5 335z" />
    <glyph glyph-name="D" unicode="D" horiz-adv-x="1249" 
d="M457 340h96q131 0 203.5 77.5t72.5 211.5q0 135 -72.5 213t-203.5 78h-96v-580zM68 0v1257h505q304 0 476 -169t172 -459t-172 -459.5t-476 -169.5h-505z" />
    <glyph glyph-name="E" unicode="E" horiz-adv-x="1069" 
d="M68 1257h946v-337h-555v-119h508v-328h-508v-133h555v-340h-946v1257z" />
    <glyph glyph-name="F" unicode="F" horiz-adv-x="1056" 
d="M459 0h-391v1257h931v-342h-540v-176h491v-331h-491v-408z" />
    <glyph glyph-name="G" unicode="G" horiz-adv-x="1280" 
d="M852 403h-147v281h546v-139q0 -260 -158.5 -412.5t-422.5 -152.5q-188 0 -334 82.5t-226.5 230t-80.5 336.5t80.5 336.5t226.5 230t334 82.5q246 0 394.5 -127t184.5 -332h-407q-39 113 -172 113q-116 0 -179 -84t-63 -219q0 -140 65 -221.5t177 -81.5q132 0 182 77z" />
    <glyph glyph-name="H" unicode="H" horiz-adv-x="1329" 
d="M864 1257h398v-1257h-398v467h-399v-467h-397v1257h397v-452h399v452z" />
    <glyph glyph-name="I" unicode="I" horiz-adv-x="532" 
d="M465 1257v-1257h-397v1257h397z" />
    <glyph glyph-name="J" unicode="J" horiz-adv-x="1173" 
d="M31 492h399q1 -77 38.5 -118.5t104.5 -41.5q77 0 111.5 46t34.5 138v741h397v-745q0 -111 -27.5 -200t-76 -150.5t-117.5 -102.5t-149 -60t-173 -19q-245 0 -390.5 139.5t-151.5 372.5z" />
    <glyph glyph-name="K" unicode="K" horiz-adv-x="1275" 
d="M465 1257v-466l338 466h454l-401 -540l420 -717h-459l-260 451l-92 -125v-326h-397v1257h397z" />
    <glyph glyph-name="L" unicode="L" horiz-adv-x="1050" 
d="M68 0v1257h397v-917h541v-340h-938z" />
    <glyph glyph-name="M" unicode="M" horiz-adv-x="1550" 
d="M899 0h-250l-213 674v-674h-368v1257h493l213 -673l215 673h494v-1257h-369v674z" />
    <glyph glyph-name="N" unicode="N" horiz-adv-x="1302" 
d="M1235 1257v-1257h-326l-458 629v-629h-383v1257h370l414 -585v585h383z" />
    <glyph glyph-name="O" unicode="O" horiz-adv-x="1325" 
d="M1296 629q0 -186 -79 -333.5t-224 -231.5t-331 -84q-185 0 -330 84t-224 231.5t-79 333.5q0 284 176 466.5t457 182.5t457.5 -182.5t176.5 -466.5zM897 629q0 139 -65 221t-170 82t-169.5 -81.5t-64.5 -221.5t64.5 -221.5t169.5 -81.5t170 82t65 221z" />
    <glyph glyph-name="P" unicode="P" horiz-adv-x="1169" 
d="M657 344h-198v-344h-391v1257h589q214 0 343.5 -120.5t129.5 -335.5q0 -216 -129.5 -336.5t-343.5 -120.5zM748 801q0 127 -144 127h-145v-254h145q144 0 144 127z" />
    <glyph glyph-name="Q" unicode="Q" horiz-adv-x="1325" 
d="M993 -96l-98 121q-115 -45 -233 -45q-185 0 -330 84t-224 231.5t-79 333.5q0 284 176 466.5t457 182.5t457.5 -182.5t176.5 -466.5q0 -252 -161 -434l86 -105zM899 629q0 139 -65.5 221t-171.5 82q-105 0 -169.5 -81.5t-64.5 -221.5q0 -142 65 -234t169 -92h6l-95 117
l230 184l82 -102q14 65 14 127z" />
    <glyph glyph-name="R" unicode="R" horiz-adv-x="1198" 
d="M551 360h-92v-360h-391v1257h612q211 0 342 -122t131 -336q0 -131 -56.5 -228t-158.5 -151l260 -420h-436zM459 928v-256h168q141 0 141 127q0 129 -141 129h-168z" />
    <glyph glyph-name="S" unicode="S" horiz-adv-x="1142" 
d="M16 387h414q28 -94 156 -94q56 0 91.5 21t35.5 61q0 30 -20 43t-62 22l-258 54q-332 67 -332 356q0 195 146 311.5t370 116.5q236 0 376 -115t165 -293h-387q-34 97 -152 97q-54 0 -85.5 -18.5t-31.5 -53.5q0 -50 70 -64l262 -61q338 -80 338 -371q0 -131 -70.5 -227.5
t-186 -144t-259.5 -47.5q-241 0 -394.5 107.5t-185.5 299.5z" />
    <glyph glyph-name="T" unicode="T" horiz-adv-x="1196" 
d="M29 920v337h1138v-337h-370v-920h-398v920h-370z" />
    <glyph glyph-name="U" unicode="U" horiz-adv-x="1261" 
d="M631 -20q-266 0 -420 142t-154 398v737h396v-702q0 -104 48.5 -162.5t129.5 -58.5t129.5 58.5t48.5 162.5v702h395v-737q0 -257 -153 -398.5t-420 -141.5z" />
    <glyph glyph-name="V" unicode="V" horiz-adv-x="1320" 
d="M856 0h-391l-465 1257h426l242 -714l243 714h410z" />
    <glyph glyph-name="W" unicode="W" horiz-adv-x="1732" 
d="M723 1257h295l166 -630l145 630h404l-336 -1257h-361l-170 643l-172 -643h-360l-334 1257h410l147 -630z" />
    <glyph glyph-name="X" unicode="X" horiz-adv-x="1273" 
d="M1255 1257l-391 -614l412 -643h-438l-207 338l-205 -338h-428l412 643l-392 614h439l184 -309l188 309h426z" />
    <glyph glyph-name="Y" unicode="Y" horiz-adv-x="1294" 
d="M655 809l226 448h413l-450 -843v-414h-400v414l-444 843h430z" />
    <glyph glyph-name="Z" unicode="Z" horiz-adv-x="1163" 
d="M1108 340v-340h-1053v299l539 621h-533v337h1041v-296l-527 -621h533z" />
    <glyph glyph-name="bracketleft" unicode="[" horiz-adv-x="698" 
d="M430 1018v-877h227v-313h-589v1503h589v-313h-227z" />
    <glyph glyph-name="backslash" unicode="\" horiz-adv-x="849" 
d="M332 1331l508 -1503h-322l-508 1503h322z" />
    <glyph glyph-name="bracketright" unicode="]" horiz-adv-x="698" 
d="M268 141v877h-227v313h590v-1503h-590v313h227z" />
    <glyph glyph-name="asciicircum" unicode="^" horiz-adv-x="933" 
d="M319 1257h295l299 -524h-315l-131 254l-131 -254h-316z" />
    <glyph glyph-name="underscore" unicode="_" horiz-adv-x="780" 
d="M41 -367v281h698v-281h-698z" />
    <glyph glyph-name="grave" unicode="`" 
d="M778 1010h-360l-174 321h360z" />
    <glyph glyph-name="a" unicode="a" horiz-adv-x="1001" 
d="M954 0h-376v45q-24 -24 -87.5 -42.5t-132.5 -18.5q-142 0 -237.5 76.5t-95.5 220.5q0 133 100.5 212.5t253.5 79.5q55 0 113 -14.5t86 -34.5v51q0 33 -19 56.5t-59 23.5q-62 0 -80 -49h-365q20 149 143 247.5t316 98.5q210 0 325 -105.5t115 -297.5v-549zM578 268v41
q-30 45 -107 45q-37 0 -63.5 -16.5t-26.5 -48.5t26.5 -49t63.5 -17q77 0 107 45z" />
    <glyph glyph-name="b" unicode="b" horiz-adv-x="1103" 
d="M453 72v-72h-390v1331h390v-473q34 38 96.5 65t128.5 27q128 0 221 -66t137.5 -174.5t44.5 -244.5t-44.5 -244.5t-137.5 -174.5t-221 -66q-66 0 -128.5 27t-96.5 65zM453 557v-184q12 -30 40.5 -48t67.5 -18q60 0 95.5 44.5t35.5 113.5t-35.5 113.5t-95.5 44.5
q-37 0 -66.5 -18.5t-41.5 -47.5z" />
    <glyph glyph-name="c" unicode="c" horiz-adv-x="987" 
d="M23 465q0 216 133.5 350.5t353.5 134.5q195 0 315.5 -109t139.5 -288h-373q-3 33 -24.5 55.5t-59.5 22.5q-47 0 -74.5 -44t-27.5 -122t27.5 -122t74.5 -44q38 0 59.5 22.5t24.5 55.5h373q-19 -179 -139.5 -288t-315.5 -109q-220 0 -353.5 134.5t-133.5 350.5z" />
    <glyph glyph-name="d" unicode="d" horiz-adv-x="1103" 
d="M651 0v72q-34 -38 -96.5 -65t-128.5 -27q-128 0 -221 66t-137.5 174.5t-44.5 244.5t44.5 244.5t137.5 174.5t221 66q66 0 128.5 -27t96.5 -65v473h389v-1331h-389zM651 373v184q-12 29 -41.5 47.5t-66.5 18.5q-60 0 -95.5 -44.5t-35.5 -113.5t35.5 -113.5t95.5 -44.5
q39 0 67.5 18t40.5 48z" />
    <glyph glyph-name="e" unicode="e" horiz-adv-x="997" 
d="M612 344h363q-26 -172 -149 -268t-314 -96q-223 0 -356 133.5t-133 351.5q0 217 135.5 351t347.5 134q220 0 344.5 -129t124.5 -342v-86h-582q21 -119 119 -119q80 0 100 70zM506 655q-79 0 -105 -96h201q-6 43 -31.5 69.5t-64.5 26.5z" />
    <glyph glyph-name="f" unicode="f" horiz-adv-x="718" 
d="M698 1323v-309q-27 12 -63 12q-48 0 -75.5 -23.5t-27.5 -68.5v-4h166v-299h-166v-631h-387v631h-125v299h125v24q0 181 102 287.5t292 106.5q86 0 159 -25z" />
    <glyph glyph-name="g" unicode="g" horiz-adv-x="1079" 
d="M631 63v82q-73 -88 -209 -88q-187 0 -293 123.5t-106 323.5q0 199 106 322.5t293 123.5q136 0 209 -88v68h385v-764q0 -243 -137.5 -371.5t-370.5 -128.5q-195 0 -325.5 90.5t-159.5 253.5h372q23 -69 113 -69q123 0 123 122zM631 416v176q-13 25 -41.5 42t-63.5 17
q-57 0 -90 -40t-33 -107t33.5 -107.5t89.5 -40.5q35 0 63.5 17.5t41.5 42.5z" />
    <glyph glyph-name="h" unicode="h" horiz-adv-x="1091" 
d="M63 0v1331h390v-477q39 44 104.5 70t142.5 26q152 0 241 -91.5t89 -246.5v-612h-389v508q0 44 -23 72t-67 28q-36 0 -62.5 -20.5t-35.5 -55.5v-532h-390z" />
    <glyph glyph-name="i" unicode="i" horiz-adv-x="516" 
d="M453 930v-930h-390v930h390zM473 1165q0 -92 -62 -146t-153 -54t-153 54t-62 146t62 146.5t153 54.5t153 -54.5t62 -146.5z" />
    <glyph glyph-name="j" unicode="j" horiz-adv-x="516" 
d="M453 930v-848q0 -198 -98.5 -307t-284.5 -109q-78 0 -138 17v284q24 -4 39 -4q47 0 69.5 19.5t22.5 70.5v877h390zM473 1165q0 -92 -62 -146t-153 -54t-153 54t-62 146t62 146.5t153 54.5t153 -54.5t62 -146.5z" />
    <glyph glyph-name="k" unicode="k" horiz-adv-x="1122" 
d="M680 0l-180 315l-47 -63v-252h-390v1331h390v-653l200 252h459l-328 -379l336 -551h-440z" />
    <glyph glyph-name="l" unicode="l" horiz-adv-x="516" 
d="M453 1331v-1331h-390v1331h390z" />
    <glyph glyph-name="m" unicode="m" horiz-adv-x="1632" 
d="M956 846q117 104 293 104q148 0 235 -91.5t87 -246.5v-612h-389v508q0 44 -19.5 72t-58.5 28q-33 0 -58 -20.5t-34 -55.5v-532h-389v508q0 44 -19.5 72t-58.5 28q-33 0 -58 -20.5t-34 -55.5v-532h-390v930h390v-76q37 43 102.5 69.5t140.5 26.5q159 0 260 -104z" />
    <glyph glyph-name="n" unicode="n" horiz-adv-x="1091" 
d="M63 0v930h390v-76q39 44 104.5 70t142.5 26q152 0 241 -91.5t89 -246.5v-612h-389v508q0 44 -23 72t-67 28q-36 0 -62.5 -20.5t-35.5 -55.5v-532h-390z" />
    <glyph glyph-name="o" unicode="o" horiz-adv-x="1032" 
d="M1010 465q0 -217 -136.5 -351t-357.5 -134q-220 0 -356.5 134t-136.5 351t136.5 351t356.5 134q221 0 357.5 -134t136.5 -351zM629 465q0 76 -30 122t-83 46q-52 0 -81 -46t-29 -122t29 -122t81 -46q53 0 83 46t30 122z" />
    <glyph glyph-name="p" unicode="p" horiz-adv-x="1103" 
d="M453 72v-385h-390v1243h390v-72q34 38 96.5 65t128.5 27q128 0 221 -66t137.5 -174.5t44.5 -244.5t-44.5 -244.5t-137.5 -174.5t-221 -66q-66 0 -128.5 27t-96.5 65zM453 557v-184q12 -29 41.5 -47.5t66.5 -18.5q60 0 95.5 44.5t35.5 113.5t-35.5 113.5t-95.5 44.5
q-39 0 -67.5 -18t-40.5 -48z" />
    <glyph glyph-name="q" unicode="q" horiz-adv-x="1103" 
d="M651 -313v385q-34 -38 -96.5 -65t-128.5 -27q-128 0 -221 66t-137.5 174.5t-44.5 244.5t44.5 244.5t137.5 174.5t221 66q66 0 128.5 -27t96.5 -65v72h389v-1243h-389zM651 373v184q-12 30 -40.5 48t-67.5 18q-60 0 -95.5 -44.5t-35.5 -113.5t35.5 -113.5t95.5 -44.5
q37 0 66.5 18.5t41.5 47.5z" />
    <glyph glyph-name="r" unicode="r" horiz-adv-x="778" 
d="M745 934v-369q-65 29 -141 29q-64 0 -103 -22.5t-48 -59.5v-512h-390v930h390v-76q83 96 213 96q51 0 79 -16z" />
    <glyph glyph-name="s" unicode="s" horiz-adv-x="940" 
d="M16 297h373q6 -27 28 -42t52 -15q57 0 57 36q0 12 -8 19t-16 9.5t-27 6.5l-174 33q-133 26 -201.5 92t-68.5 187q0 105 58.5 180.5t152 111t209.5 35.5q200 0 314.5 -85t133.5 -234h-352q-8 59 -80 59q-24 0 -38.5 -10t-14.5 -25q0 -16 10 -22.5t35 -11.5l178 -41
q272 -64 272 -287q0 -148 -122.5 -230.5t-309.5 -82.5q-192 0 -316 81.5t-145 235.5z" />
    <glyph glyph-name="t" unicode="t" horiz-adv-x="759" 
d="M141 358v273h-129v299h129v260h383v-260h187v-299h-187v-209q0 -103 92 -103q48 0 95 13v-324q-67 -24 -191 -24q-192 0 -285.5 90t-93.5 284z" />
    <glyph glyph-name="u" unicode="u" horiz-adv-x="1087" 
d="M1024 930v-930h-387v76q-39 -44 -105 -70t-143 -26q-151 0 -239.5 91t-88.5 246v613h390v-514q0 -44 22 -72.5t66 -28.5q33 0 60 21t36 55v539h389z" />
    <glyph glyph-name="v" unicode="v" horiz-adv-x="1044" 
d="M690 0h-336l-354 930h393l142 -451l135 451h374z" />
    <glyph glyph-name="w" unicode="w" horiz-adv-x="1484" 
d="M858 930l125 -416l129 416h373l-318 -930h-311l-115 371l-112 -371h-312l-317 930h387l129 -416l125 416h217z" />
    <glyph glyph-name="x" unicode="x" horiz-adv-x="1046" 
d="M1040 930l-307 -461l314 -469h-414l-119 193l-117 -193h-397l311 469l-305 461h414l110 -185l113 185h397z" />
    <glyph glyph-name="y" unicode="y" horiz-adv-x="1060" 
d="M588 -313h-385l139 362l-342 881h401l142 -441l135 441h383z" />
    <glyph glyph-name="z" unicode="z" horiz-adv-x="942" 
d="M893 299v-299h-844v258l371 373h-365v299h834v-258l-346 -373h350z" />
    <glyph glyph-name="braceleft" unicode="{" horiz-adv-x="776" 
d="M528 410v-209q0 -60 60 -60h147v-313h-289q-117 0 -190.5 74t-73.5 192v271q0 59 -59 59h-82v311h82q59 0 59 60v270q0 118 73.5 192t190.5 74h289v-313h-147q-60 0 -60 -60v-208q0 -110 -96 -170q96 -60 96 -170z" />
    <glyph glyph-name="bar" unicode="|" horiz-adv-x="444" 
d="M68 -172v1503h309v-1503h-309z" />
    <glyph glyph-name="braceright" unicode="}" horiz-adv-x="776" 
d="M248 201v209q0 110 96 170q-96 60 -96 170v208q0 60 -60 60h-147v313h289q117 0 190.5 -74t73.5 -192v-270q0 -60 59 -60h82v-311h-82q-59 0 -59 -59v-271q0 -118 -73.5 -192t-190.5 -74h-289v313h147q60 0 60 60z" />
    <glyph glyph-name="asciitilde" unicode="~" horiz-adv-x="870" 
d="M596 743h223q0 -170 -60.5 -263t-172.5 -93q-44 0 -82 16.5t-60 37t-49 37t-51 16.5q-70 0 -70 -97h-223q0 170 61.5 264.5t174.5 94.5q43 0 81 -16.5t60.5 -37t49.5 -37t50 -16.5q36 0 52 21t16 73z" />
    <glyph glyph-name="uni00A0" unicode="&#xa0;" horiz-adv-x="382" 
 />
    <glyph glyph-name="exclamdown" unicode="&#xa1;" horiz-adv-x="536" 
d="M47 870q0 87 64 146t157 59t157 -59t64 -146t-64 -145.5t-157 -58.5t-157 58.5t-64 145.5zM31 -197l84 822h307l84 -822h-475z" />
    <glyph glyph-name="cent" unicode="&#xa2;" horiz-adv-x="987" 
d="M23 485q0 173 87.5 297t241.5 168v205h307v-205q132 -36 211.5 -136t94.5 -241h-373q-3 33 -24.5 55.5t-59.5 22.5q-47 0 -74.5 -44t-27.5 -122t27.5 -122t74.5 -44q38 0 59.5 22.5t24.5 55.5h373q-15 -141 -94.5 -241t-211.5 -138v-186h-307v188q-153 43 -241 167
t-88 298z" />
    <glyph glyph-name="sterling" unicode="&#xa3;" horiz-adv-x="1042" 
d="M526 860v-94h197v-289h-199q-3 -100 -41 -153h512v-324h-954v324h76q36 64 41 153h-117v289h117v78q0 195 112.5 314.5t311.5 119.5q190 0 302 -109t117 -288h-342q0 77 -63 77q-70 0 -70 -98z" />
    <glyph glyph-name="yen" unicode="&#xa5;" horiz-adv-x="1200" 
d="M123 475v207h178l-281 575h431l157 -378l158 378h414l-287 -575h178v-207h-280v-80h280v-207h-280v-188h-388v188h-280v207h280v80h-280z" />
    <glyph glyph-name="section" unicode="&#xa7;" horiz-adv-x="995" 
d="M809 287q82 -82 82 -185q0 -140 -111 -223.5t-282 -83.5q-195 0 -301.5 85t-124.5 235h325q7 -68 74 -68q25 0 42 15t17 42q0 30 -41 56l-239 119q-107 53 -158 120t-51 160q0 152 143 227q-80 77 -80 185q0 140 111.5 223.5t282.5 83.5q195 0 301.5 -85t124.5 -235h-326
q-7 68 -74 68q-25 0 -42 -15t-17 -42q0 -30 41 -56l239 -118q107 -53 158 -120.5t51 -160.5q0 -151 -145 -227zM428 524l150 -86q32 11 32 45q0 21 -8.5 35.5t-34.5 30.5l-149 86q-33 -14 -33 -45q0 -21 8.5 -35.5t34.5 -30.5z" />
    <glyph glyph-name="dieresis" unicode="&#xa8;" 
d="M137 1155q0 74 52.5 127t125.5 53q74 0 127.5 -53.5t53.5 -126.5t-53.5 -125.5t-127.5 -52.5q-73 0 -125.5 52.5t-52.5 125.5zM526 1155q0 74 53 127t126 53t126.5 -53.5t53.5 -126.5t-53 -125.5t-127 -52.5t-126.5 52.5t-52.5 125.5z" />
    <glyph glyph-name="copyright" unicode="&#xa9;" horiz-adv-x="1441" 
d="M1370 629q0 -184 -88 -334t-236 -232.5t-325 -82.5t-325 82.5t-236 232.5t-88 334t88 334t236 232.5t325 82.5t325 -82.5t236 -232.5t88 -334zM1274 629q0 157 -75 285t-201.5 199t-276.5 71t-276.5 -71t-201.5 -199t-75 -285t75 -285t201.5 -199t276.5 -71t276.5 71
t201.5 199t75 285zM332 631q0 181 110 295t285 114q152 0 243.5 -79.5t112.5 -206.5h-252q-22 69 -104 69q-70 0 -106.5 -52.5t-36.5 -139.5q0 -84 37 -137.5t106 -53.5q82 0 104 72h252q-21 -128 -112.5 -208.5t-243.5 -80.5q-175 0 -285 114t-110 294z" />
    <glyph glyph-name="ordfeminine" unicode="&#xaa;" horiz-adv-x="679" 
d="M651 625h-254v30q-19 -17 -62 -30t-91 -13q-97 0 -163.5 53.5t-66.5 151.5q0 93 70 148t174 55q37 0 77.5 -10.5t61.5 -24.5v37q0 23 -14 39t-43 16q-47 0 -57 -39h-238q13 106 93 173t212 67q144 0 222.5 -71.5t78.5 -202.5v-379zM397 811v27q-24 28 -71 28
q-24 0 -42 -11.5t-18 -31.5t18 -31.5t42 -11.5q47 0 71 31z" />
    <glyph glyph-name="guillemotleft" unicode="&#xab;" horiz-adv-x="989" 
d="M547 111h-307l-189 344l189 344h307l-189 -344zM938 111h-307l-189 344l189 344h307l-188 -344z" />
    <glyph glyph-name="registered" unicode="&#xae;" horiz-adv-x="833" 
d="M786 903q0 -161 -108 -268t-262 -107t-262.5 107t-108.5 268t108.5 268t262.5 107t262 -107t108 -268zM719 903q0 135 -87.5 223t-215.5 88t-215.5 -88t-87.5 -223t87.5 -223t215.5 -88t215.5 88t87.5 223zM399 821h-12v-112h-131v393h193q67 0 108 -38.5t41 -105.5
q0 -83 -70 -120l82 -129h-145zM469 958q0 35 -45 35h-37v-67h37q45 0 45 32z" />
    <glyph glyph-name="macron" unicode="&#xaf;" 
d="M236 1010v256h550v-256h-550z" />
    <glyph glyph-name="degree" unicode="&#xb0;" horiz-adv-x="749" 
d="M266 979q0 -47 32.5 -81t76.5 -34t76 34t32 81t-32 81t-76 34t-76.5 -34t-32.5 -81zM668 979q0 -124 -86.5 -211.5t-206.5 -87.5t-206.5 87.5t-86.5 211.5t86.5 211.5t206.5 87.5t206.5 -87.5t86.5 -211.5z" />
    <glyph glyph-name="plusminus" unicode="&#xb1;" horiz-adv-x="1159" 
d="M455 1176h247v-256h340v-246h-340v-256h-247v256h-338v246h338v256zM117 70v245h925v-245h-925z" />
    <glyph glyph-name="twosuperior" unicode="&#xb2;" horiz-adv-x="663" 
d="M385 1012q0 18 -11 30.5t-32 12.5q-19 0 -32 -13.5t-13 -29.5h-256q11 108 90.5 182t204.5 74q130 0 210.5 -67t80.5 -173q0 -68 -33 -115t-100 -106l-91 -78h218v-207h-574v156l285 252l11 11l10.5 10.5t8.5 9t8 10t6 9t5.5 10t2.5 10.5t1 12z" />
    <glyph glyph-name="threesuperior" unicode="&#xb3;" horiz-adv-x="630" 
d="M250 811v160h49q68 0 68 55q0 21 -12.5 35t-37.5 14q-27 0 -42.5 -18.5t-18.5 -44.5h-231q11 109 86 182.5t200 73.5q132 0 207.5 -66t75.5 -176q0 -37 -20.5 -77.5t-47.5 -59.5q34 -19 54 -55.5t20 -77.5q0 -111 -77.5 -178.5t-209.5 -67.5q-130 0 -208.5 71.5
t-84.5 190.5h246q2 -27 16.5 -44t41.5 -17q22 0 35.5 14.5t13.5 36.5q0 49 -64 49h-59z" />
    <glyph glyph-name="acute" unicode="&#xb4;" 
d="M604 1010h-360l174 321h360z" />
    <glyph glyph-name="paragraph" unicode="&#xb6;" horiz-adv-x="1155" 
d="M844 -184v1441h243v-1441h-243zM512 -184v667q-90 0 -173 23t-153.5 68t-112.5 121.5t-42 174.5t42 174.5t112.5 121.5t153.5 68t173 23h244v-1441h-244z" />
    <glyph glyph-name="periodcentered" unicode="&#xb7;" horiz-adv-x="518" 
d="M41 532q0 95 63 158.5t154 63.5q93 0 156 -63.5t63 -158.5q0 -94 -63.5 -157.5t-155.5 -63.5q-91 0 -154 64t-63 157z" />
    <glyph glyph-name="cedilla" unicode="&#xb8;" 
d="M580 -358h-320l137 292h320z" />
    <glyph glyph-name="onesuperior" unicode="&#xb9;" horiz-adv-x="503" 
d="M436 1257v-735h-239v467l-174 -82v242l235 108h178z" />
    <glyph glyph-name="ordmasculine" unicode="&#xba;" horiz-adv-x="710" 
d="M698 944q0 -149 -94 -241.5t-248 -92.5q-152 0 -247 92.5t-95 241.5t95 241.5t247 92.5q154 0 248 -92.5t94 -241.5zM428 944q0 50 -19.5 80.5t-52.5 30.5t-52 -30.5t-19 -80.5t19 -79t52 -29q34 0 53 29t19 79z" />
    <glyph glyph-name="guillemotright" unicode="&#xbb;" horiz-adv-x="989" 
d="M750 111h-308l189 344l-189 344h308l188 -344zM358 111h-307l189 344l-189 344h307l189 -344z" />
    <glyph glyph-name="onequarter" unicode="&#xbc;" horiz-adv-x="1509" 
d="M1241 1257l-838 -1257h-196l837 1257h197zM453 1257v-735h-240v467l-174 -82v242l235 108h179zM1282 735l-192 -424h79v95h209v-95h95v-200h-95v-111h-209v111h-338v188l218 436h233z" />
    <glyph glyph-name="onehalf" unicode="&#xbd;" horiz-adv-x="1505" 
d="M1241 1257l-838 -1257h-196l837 1257h197zM453 1257v-735h-240v467l-174 -82v242l235 108h179zM1210 489q0 18 -11 30.5t-32 12.5q-19 0 -32 -13.5t-13 -29.5h-256q11 108 90.5 182t204.5 74q130 0 210.5 -66.5t80.5 -172.5q0 -68 -33 -115t-100 -106l-90 -78h217v-207
h-574v156l285 252l12 12l12 12t9.5 10t8.5 11t5.5 10.5t4.5 12.5t1 13z" />
    <glyph glyph-name="threequarters" unicode="&#xbe;" horiz-adv-x="1560" 
d="M1292 1257l-837 -1257h-197l838 1257h196zM266 811v160h49q68 0 68 55q0 21 -12 35t-37 14q-27 0 -43 -18.5t-19 -44.5h-231q11 108 86.5 182t200.5 74q132 0 207 -66t75 -176q0 -38 -20 -78t-47 -59q33 -19 53 -55t20 -78q0 -111 -77 -178.5t-209 -67.5
q-130 0 -208.5 71.5t-84.5 190.5h246q2 -28 16 -44.5t41 -16.5q22 0 35.5 14.5t13.5 36.5q0 49 -63 49h-60zM1333 735l-192 -424h80v95h209v-95h94v-200h-94v-111h-209v111h-338v188l217 436h233z" />
    <glyph glyph-name="questiondown" unicode="&#xbf;" horiz-adv-x="1013" 
d="M700 870q0 -88 -64 -146t-157 -58q-96 0 -160.5 57t-64.5 147q0 88 65 146.5t160 58.5q93 0 157 -59t64 -146zM41 168q0 54 21.5 108t44 85.5t68.5 87.5t63 79q40 54 43 97h387q-2 -43 -19.5 -83.5t-68.5 -107.5q-14 -18 -41.5 -52.5t-38.5 -49t-26 -37.5t-20 -41t-5 -37
q0 -34 20 -55t49 -21q34 0 55 22.5t23 51.5h397q-10 -89 -45 -166t-94.5 -137t-151 -94.5t-204.5 -34.5q-203 0 -330 104t-127 281z" />
    <glyph glyph-name="Agrave" unicode="&#xc0;" horiz-adv-x="1363" 
d="M475 1257h414l475 -1257h-401l-66 182h-442l-66 -182h-389zM887 1358h-381l-174 280h381zM676 793l-105 -289h209z" />
    <glyph glyph-name="Aacute" unicode="&#xc1;" horiz-adv-x="1363" 
d="M475 1257h414l475 -1257h-401l-66 182h-442l-66 -182h-389zM868 1358h-381l175 280h380zM676 793l-105 -289h209z" />
    <glyph glyph-name="Acircumflex" unicode="&#xc2;" horiz-adv-x="1363" 
d="M475 1257h414l475 -1257h-401l-66 182h-442l-66 -182h-389zM821 1638l240 -280h-305l-74 76l-74 -76h-305l240 280h278zM676 793l-105 -289h209z" />
    <glyph glyph-name="Atilde" unicode="&#xc3;" horiz-adv-x="1363" 
d="M475 1257h414l475 -1257h-401l-66 182h-442l-66 -182h-389zM815 1671h205q0 -330 -186 -330q-52 0 -131 28t-109 28q-20 0 -32.5 -13.5t-12.5 -33.5h-205q0 329 186 329q52 0 131 -27.5t109 -27.5q20 0 32.5 13.5t12.5 33.5zM676 793l-105 -289h209z" />
    <glyph glyph-name="Adieresis" unicode="&#xc4;" horiz-adv-x="1363" 
d="M475 1257h414l475 -1257h-401l-66 182h-442l-66 -182h-389zM295 1509q0 77 54 132t130 55q77 0 132 -55t55 -132q0 -76 -55 -130t-132 -54t-130.5 53.5t-53.5 130.5zM698 1509q0 77 54.5 132t130.5 55t131 -55t55 -132q0 -76 -54.5 -130t-131.5 -54t-131 54t-54 130z
M676 793l-105 -289h209z" />
    <glyph glyph-name="Aring" unicode="&#xc5;" horiz-adv-x="1363" 
d="M475 1257h414l475 -1257h-401l-66 182h-442l-66 -182h-389zM922 1538q0 -97 -69.5 -164t-170.5 -67t-170.5 67t-69.5 164t69.5 165.5t170.5 68.5t170.5 -68.5t69.5 -165.5zM676 793l-105 -289h209zM750 1538q0 28 -19 48t-49 20q-29 0 -47.5 -20t-18.5 -48
q0 -27 18.5 -46t47.5 -19q30 0 49 19t19 46z" />
    <glyph glyph-name="AE" unicode="&#xc6;" horiz-adv-x="1878" 
d="M692 1257h1131v-337h-514v-119h467v-328h-467v-133h514v-340h-905v182h-402l-96 -182h-420zM918 932l-230 -428h230v428z" />
    <glyph glyph-name="Ccedilla" unicode="&#xc7;" horiz-adv-x="1241" 
d="M29 629q0 187 78.5 335t220.5 231t323 83q238 0 382.5 -127t178.5 -330h-397q-18 52 -60 81.5t-104 29.5q-105 0 -164 -84.5t-59 -218.5q0 -133 59.5 -218t163.5 -85q62 0 104.5 29.5t59.5 82.5h397q-16 -98 -59.5 -180.5t-112 -145t-168.5 -97.5t-221 -35
q-181 0 -323 83t-220.5 231t-78.5 335zM678 -358h-320l138 292h319z" />
    <glyph glyph-name="Egrave" unicode="&#xc8;" horiz-adv-x="1069" 
d="M758 1358h-381l-174 280h381zM68 1257h946v-337h-555v-119h508v-328h-508v-133h555v-340h-946v1257z" />
    <glyph glyph-name="Eacute" unicode="&#xc9;" horiz-adv-x="1069" 
d="M739 1358h-381l174 280h381zM68 1257h946v-337h-555v-119h508v-328h-508v-133h555v-340h-946v1257z" />
    <glyph glyph-name="Ecircumflex" unicode="&#xca;" horiz-adv-x="1069" 
d="M68 1257h946v-337h-555v-119h508v-328h-508v-133h555v-340h-946v1257zM692 1638l240 -280h-305l-74 76l-74 -76h-305l240 280h278z" />
    <glyph glyph-name="Edieresis" unicode="&#xcb;" horiz-adv-x="1069" 
d="M166 1509q0 77 54 132t130 55t131.5 -55t55.5 -132q0 -76 -55 -130t-132 -54q-76 0 -130 53.5t-54 130.5zM569 1509q0 77 54.5 132t130.5 55t131 -55t55 -132q0 -76 -54.5 -130t-131.5 -54t-131 54t-54 130zM68 1257h946v-337h-555v-119h508v-328h-508v-133h555v-340
h-946v1257z" />
    <glyph glyph-name="Igrave" unicode="&#xcc;" horiz-adv-x="532" 
d="M465 1257v-1257h-397v1257h397zM471 1358h-381l-174 280h381z" />
    <glyph glyph-name="Iacute" unicode="&#xcd;" horiz-adv-x="532" 
d="M465 1257v-1257h-397v1257h397zM453 1358h-381l174 280h381z" />
    <glyph glyph-name="Icircumflex" unicode="&#xce;" horiz-adv-x="532" 
d="M465 1257v-1257h-397v1257h397zM406 1638l239 -280h-305l-74 76l-73 -76h-306l240 280h279z" />
    <glyph glyph-name="Idieresis" unicode="&#xcf;" horiz-adv-x="532" 
d="M465 1257v-1257h-397v1257h397zM-121 1509q0 77 54 132t130 55q77 0 132 -55t55 -132q0 -76 -55 -130t-132 -54t-130.5 53.5t-53.5 130.5zM283 1509q0 77 54 132t130 55t131 -55t55 -132q0 -76 -54.5 -130t-131.5 -54t-130.5 53.5t-53.5 130.5z" />
    <glyph glyph-name="Eth" unicode="&#xd0;" horiz-adv-x="1284" 
d="M20 489v297h82v471h506q304 0 475.5 -169t171.5 -459t-172 -459.5t-475 -169.5h-506v489h-82zM492 340h96q131 0 203.5 77.5t72.5 211.5q0 135 -72.5 213t-203.5 78h-96v-134h143v-297h-143v-149z" />
    <glyph glyph-name="Ntilde" unicode="&#xd1;" horiz-adv-x="1302" 
d="M784 1671h205q0 -330 -186 -330q-51 0 -130 28t-110 28q-20 0 -32.5 -13.5t-12.5 -33.5h-205q0 329 187 329q52 0 130 -27.5t109 -27.5q20 0 32.5 13.5t12.5 33.5zM1235 1257v-1257h-326l-458 629v-629h-383v1257h370l414 -585v585h383z" />
    <glyph glyph-name="Ograve" unicode="&#xd2;" horiz-adv-x="1325" 
d="M866 1358h-381l-174 280h381zM1296 629q0 -186 -79 -333.5t-224 -231.5t-331 -84q-185 0 -330 84t-224 231.5t-79 333.5q0 284 176 466.5t457 182.5t457.5 -182.5t176.5 -466.5zM897 629q0 139 -65 221t-170 82t-169.5 -81.5t-64.5 -221.5t64.5 -221.5t169.5 -81.5
t170 82t65 221z" />
    <glyph glyph-name="Oacute" unicode="&#xd3;" horiz-adv-x="1325" 
d="M848 1358h-381l174 280h381zM1296 629q0 -186 -79 -333.5t-224 -231.5t-331 -84q-185 0 -330 84t-224 231.5t-79 333.5q0 284 176 466.5t457 182.5t457.5 -182.5t176.5 -466.5zM897 629q0 139 -65 221t-170 82t-169.5 -81.5t-64.5 -221.5t64.5 -221.5t169.5 -81.5t170 82
t65 221z" />
    <glyph glyph-name="Ocircumflex" unicode="&#xd4;" horiz-adv-x="1325" 
d="M1296 629q0 -186 -79 -333.5t-224 -231.5t-331 -84q-185 0 -330 84t-224 231.5t-79 333.5q0 284 176 466.5t457 182.5t457.5 -182.5t176.5 -466.5zM897 629q0 139 -65 221t-170 82t-169.5 -81.5t-64.5 -221.5t64.5 -221.5t169.5 -81.5t170 82t65 221zM801 1638l239 -280
h-305l-73 76l-74 -76h-305l239 280h279z" />
    <glyph glyph-name="Otilde" unicode="&#xd5;" horiz-adv-x="1325" 
d="M795 1671h204q0 -330 -186 -330q-51 0 -130 28t-110 28q-20 0 -32.5 -13.5t-12.5 -33.5h-204q0 329 186 329q52 0 131 -27.5t109 -27.5q20 0 32.5 13.5t12.5 33.5zM1296 629q0 -186 -79 -333.5t-224 -231.5t-331 -84q-185 0 -330 84t-224 231.5t-79 333.5
q0 284 176 466.5t457 182.5t457.5 -182.5t176.5 -466.5zM897 629q0 139 -65 221t-170 82t-169.5 -81.5t-64.5 -221.5t64.5 -221.5t169.5 -81.5t170 82t65 221z" />
    <glyph glyph-name="Odieresis" unicode="&#xd6;" horiz-adv-x="1325" 
d="M274 1509q0 77 54.5 132t130.5 55t131 -55t55 -132q0 -76 -54.5 -130t-131.5 -54t-131 54t-54 130zM678 1509q0 77 54 132t130 55t131.5 -55t55.5 -132q0 -76 -55 -130t-132 -54q-76 0 -130 53.5t-54 130.5zM1296 629q0 -186 -79 -333.5t-224 -231.5t-331 -84
q-185 0 -330 84t-224 231.5t-79 333.5q0 284 176 466.5t457 182.5t457.5 -182.5t176.5 -466.5zM897 629q0 139 -65 221t-170 82t-169.5 -81.5t-64.5 -221.5t64.5 -221.5t169.5 -81.5t170 82t65 221z" />
    <glyph glyph-name="multiply" unicode="&#xd7;" horiz-adv-x="1009" 
d="M307 612l-246 244l199 199l246 -244l244 244l198 -199l-243 -244l243 -245l-198 -197l-244 244l-246 -244l-199 197z" />
    <glyph glyph-name="Oslash" unicode="&#xd8;" horiz-adv-x="1341" 
d="M37 84l129 133q-129 167 -129 412q0 284 176 466.5t457 182.5q231 0 397 -131l127 131l111 -104l-129 -134q129 -175 129 -411q0 -186 -79.5 -334t-224.5 -231.5t-331 -83.5q-234 0 -398 129l-125 -129zM436 629q0 -67 15 -119l358 371q-57 51 -139 51
q-105 0 -169.5 -81.5t-64.5 -221.5zM905 629q0 55 -14 116l-361 -370q55 -49 140 -49q105 0 170 82t65 221z" />
    <glyph glyph-name="Ugrave" unicode="&#xd9;" horiz-adv-x="1261" 
d="M836 1358h-381l-174 280h381zM631 -20q-266 0 -420 142t-154 398v737h396v-702q0 -104 48.5 -162.5t129.5 -58.5t129.5 58.5t48.5 162.5v702h395v-737q0 -257 -153 -398.5t-420 -141.5z" />
    <glyph glyph-name="Uacute" unicode="&#xda;" horiz-adv-x="1261" 
d="M817 1358h-381l174 280h381zM631 -20q-266 0 -420 142t-154 398v737h396v-702q0 -104 48.5 -162.5t129.5 -58.5t129.5 58.5t48.5 162.5v702h395v-737q0 -257 -153 -398.5t-420 -141.5z" />
    <glyph glyph-name="Ucircumflex" unicode="&#xdb;" horiz-adv-x="1261" 
d="M631 -20q-266 0 -420 142t-154 398v737h396v-702q0 -104 48.5 -162.5t129.5 -58.5t129.5 58.5t48.5 162.5v702h395v-737q0 -257 -153 -398.5t-420 -141.5zM770 1638l240 -280h-305l-74 76l-74 -76h-305l240 280h278z" />
    <glyph glyph-name="Udieresis" unicode="&#xdc;" horiz-adv-x="1261" 
d="M244 1509q0 77 54 132t130 55t131 -55t55 -132q0 -76 -54.5 -130t-131.5 -54q-76 0 -130 53.5t-54 130.5zM647 1509q0 77 54 132t130 55q77 0 132 -55t55 -132q0 -76 -55 -130t-132 -54t-130.5 53.5t-53.5 130.5zM631 -20q-266 0 -420 142t-154 398v737h396v-702
q0 -104 48.5 -162.5t129.5 -58.5t129.5 58.5t48.5 162.5v702h395v-737q0 -257 -153 -398.5t-420 -141.5z" />
    <glyph glyph-name="Yacute" unicode="&#xdd;" horiz-adv-x="1294" 
d="M655 809l226 448h413l-450 -843v-414h-400v414l-444 843h430zM834 1358h-381l174 280h381z" />
    <glyph glyph-name="Thorn" unicode="&#xde;" horiz-adv-x="1169" 
d="M657 182h-198v-182h-391v1257h391v-161h198q214 0 343.5 -120.5t129.5 -336.5t-129.5 -336.5t-343.5 -120.5zM748 639q0 127 -144 127h-145v-254h145q144 0 144 127z" />
    <glyph glyph-name="germandbls" unicode="&#xdf;" horiz-adv-x="1140" 
d="M899 715q97 -36 158 -121.5t61 -208.5q0 -185 -112 -290t-293 -105q-97 0 -162 22v297q30 -10 76 -10q57 0 89 30t32 87q0 58 -39 86t-107 28h-45v293h8q44 0 70.5 26.5t26.5 74.5q0 44 -26.5 70t-76.5 26q-51 0 -79.5 -37.5t-28.5 -97.5v-885h-388v852
q0 231 132.5 363.5t363.5 132.5q222 0 344.5 -102.5t122.5 -266.5q0 -90 -37 -160t-90 -104z" />
    <glyph glyph-name="agrave" unicode="&#xe0;" horiz-adv-x="1001" 
d="M954 0h-376v45q-24 -24 -87.5 -42.5t-132.5 -18.5q-142 0 -237.5 76.5t-95.5 220.5q0 133 100.5 212.5t253.5 79.5q55 0 113 -14.5t86 -34.5v51q0 33 -19 56.5t-59 23.5q-62 0 -80 -49h-365q20 149 143 247.5t316 98.5q210 0 325 -105.5t115 -297.5v-549zM578 268v41
q-30 45 -107 45q-37 0 -63.5 -16.5t-26.5 -48.5t26.5 -49t63.5 -17q77 0 107 45zM713 1010h-361l-174 321h361z" />
    <glyph glyph-name="aacute" unicode="&#xe1;" horiz-adv-x="1001" 
d="M954 0h-376v45q-24 -24 -87.5 -42.5t-132.5 -18.5q-142 0 -237.5 76.5t-95.5 220.5q0 133 100.5 212.5t253.5 79.5q55 0 113 -14.5t86 -34.5v51q0 33 -19 56.5t-59 23.5q-62 0 -80 -49h-365q20 149 143 247.5t316 98.5q210 0 325 -105.5t115 -297.5v-549zM578 268v41
q-30 45 -107 45q-37 0 -63.5 -16.5t-26.5 -48.5t26.5 -49t63.5 -17q77 0 107 45zM698 1010h-360l174 321h360z" />
    <glyph glyph-name="acircumflex" unicode="&#xe2;" horiz-adv-x="1001" 
d="M659 1331l199 -321h-276l-62 84l-61 -84h-277l199 321h278zM954 0h-376v45q-24 -24 -87.5 -42.5t-132.5 -18.5q-142 0 -237.5 76.5t-95.5 220.5q0 133 100.5 212.5t253.5 79.5q55 0 113 -14.5t86 -34.5v51q0 33 -19 56.5t-59 23.5q-62 0 -80 -49h-365q20 149 143 247.5
t316 98.5q210 0 325 -105.5t115 -297.5v-549zM578 268v41q-30 45 -107 45q-37 0 -63.5 -16.5t-26.5 -48.5t26.5 -49t63.5 -17q77 0 107 45z" />
    <glyph glyph-name="atilde" unicode="&#xe3;" horiz-adv-x="1001" 
d="M954 0h-376v45q-24 -24 -87.5 -42.5t-132.5 -18.5q-142 0 -237.5 76.5t-95.5 220.5q0 133 100.5 212.5t253.5 79.5q55 0 113 -14.5t86 -34.5v51q0 33 -19 56.5t-59 23.5q-62 0 -80 -49h-365q20 149 143 247.5t316 98.5q210 0 325 -105.5t115 -297.5v-549zM578 268v41
q-30 45 -107 45q-37 0 -63.5 -16.5t-26.5 -48.5t26.5 -49t63.5 -17q77 0 107 45zM645 1331h205q0 -330 -186 -330q-52 0 -110 28t-89 28q-20 0 -32.5 -13.5t-12.5 -33.5h-205q0 329 186 329q51 0 109.5 -27.5t89.5 -27.5q20 0 32.5 13.5t12.5 33.5z" />
    <glyph glyph-name="adieresis" unicode="&#xe4;" horiz-adv-x="1001" 
d="M154 1155q0 74 52.5 127t125.5 53q74 0 127 -53.5t53 -126.5t-53 -125.5t-127 -52.5t-126 52.5t-52 125.5zM543 1155q0 74 52.5 127t125.5 53t126.5 -53.5t53.5 -126.5t-53 -125.5t-127 -52.5q-73 0 -125.5 52.5t-52.5 125.5zM954 0h-376v45q-24 -24 -87.5 -42.5
t-132.5 -18.5q-142 0 -237.5 76.5t-95.5 220.5q0 133 100.5 212.5t253.5 79.5q55 0 113 -14.5t86 -34.5v51q0 33 -19 56.5t-59 23.5q-62 0 -80 -49h-365q20 149 143 247.5t316 98.5q210 0 325 -105.5t115 -297.5v-549zM578 268v41q-30 45 -107 45q-37 0 -63.5 -16.5
t-26.5 -48.5t26.5 -49t63.5 -17q77 0 107 45z" />
    <glyph glyph-name="aring" unicode="&#xe5;" horiz-adv-x="1001" 
d="M954 0h-376v45q-24 -24 -87.5 -42.5t-132.5 -18.5q-142 0 -237.5 76.5t-95.5 220.5q0 133 100.5 212.5t253.5 79.5q55 0 113 -14.5t86 -34.5v51q0 33 -19 56.5t-59 23.5q-62 0 -80 -49h-365q20 149 143 247.5t316 98.5q210 0 325 -105.5t115 -297.5v-549zM578 268v41
q-30 45 -107 45q-37 0 -63.5 -16.5t-26.5 -48.5t26.5 -49t63.5 -17q77 0 107 45zM766 1219q0 -97 -69.5 -164.5t-170.5 -67.5t-170 67.5t-69 164.5t69 165t170 68t170.5 -68t69.5 -165zM594 1219q0 28 -19 47.5t-49 19.5q-29 0 -47 -19.5t-18 -47.5q0 -27 18.5 -46.5
t46.5 -19.5q30 0 49 19.5t19 46.5z" />
    <glyph glyph-name="ae" unicode="&#xe6;" horiz-adv-x="1499" 
d="M467 240q68 0 98 45v94h-98q-39 0 -64.5 -20.5t-25.5 -53.5q0 -32 26.5 -48.5t63.5 -16.5zM1108 330h367q-31 -165 -156.5 -257.5t-312.5 -92.5q-162 0 -308 102q-140 -102 -336 -102q-140 0 -239.5 77t-99.5 209q0 141 115 217t290 76h137v23q0 35 -22 58.5t-66 23.5
q-34 0 -57 -16t-29 -42h-338q20 151 134 247.5t298 96.5q143 0 265 -82q122 82 264 82q212 0 337.5 -130t125.5 -341v-100h-582q10 -58 38 -81.5t81 -23.5q71 0 94 56zM1008 655q-79 0 -105 -96h201q-6 43 -31.5 69.5t-64.5 26.5z" />
    <glyph glyph-name="ccedilla" unicode="&#xe7;" horiz-adv-x="987" 
d="M23 465q0 216 133.5 350.5t353.5 134.5q195 0 315.5 -109t139.5 -288h-373q-3 33 -24.5 55.5t-59.5 22.5q-47 0 -74.5 -44t-27.5 -122t27.5 -122t74.5 -44q38 0 59.5 22.5t24.5 55.5h373q-19 -179 -139.5 -288t-315.5 -109q-220 0 -353.5 134.5t-133.5 350.5zM524 -358
h-319l137 292h320z" />
    <glyph glyph-name="egrave" unicode="&#xe8;" horiz-adv-x="997" 
d="M612 344h363q-26 -172 -149 -268t-314 -96q-223 0 -356 133.5t-133 351.5q0 217 135.5 351t347.5 134q220 0 344.5 -129t124.5 -342v-86h-582q21 -119 119 -119q80 0 100 70zM506 655q-79 0 -105 -96h201q-6 43 -31.5 69.5t-64.5 26.5zM702 1010h-360l-174 321h360z" />
    <glyph glyph-name="eacute" unicode="&#xe9;" horiz-adv-x="997" 
d="M688 1010h-360l174 321h360zM612 344h363q-26 -172 -149 -268t-314 -96q-223 0 -356 133.5t-133 351.5q0 217 135.5 351t347.5 134q220 0 344.5 -129t124.5 -342v-86h-582q21 -119 119 -119q80 0 100 70zM506 655q-79 0 -105 -96h201q-6 43 -31.5 69.5t-64.5 26.5z" />
    <glyph glyph-name="ecircumflex" unicode="&#xea;" horiz-adv-x="997" 
d="M655 1331l199 -321h-276l-62 84l-61 -84h-277l199 321h278zM612 344h363q-26 -172 -149 -268t-314 -96q-223 0 -356 133.5t-133 351.5q0 217 135.5 351t347.5 134q220 0 344.5 -129t124.5 -342v-86h-582q21 -119 119 -119q80 0 100 70zM506 655q-79 0 -105 -96h201
q-6 43 -31.5 69.5t-64.5 26.5z" />
    <glyph glyph-name="edieresis" unicode="&#xeb;" horiz-adv-x="997" 
d="M143 1155q0 74 53 127t126 53q74 0 127 -53.5t53 -126.5t-53 -125.5t-127 -52.5t-126.5 52.5t-52.5 125.5zM532 1155q0 74 53 127t126 53t126.5 -53.5t53.5 -126.5t-53 -125.5t-127 -52.5t-126.5 52.5t-52.5 125.5zM612 344h363q-26 -172 -149 -268t-314 -96
q-223 0 -356 133.5t-133 351.5q0 217 135.5 351t347.5 134q220 0 344.5 -129t124.5 -342v-86h-582q21 -119 119 -119q80 0 100 70zM506 655q-79 0 -105 -96h201q-6 43 -31.5 69.5t-64.5 26.5z" />
    <glyph glyph-name="igrave" unicode="&#xec;" horiz-adv-x="516" 
d="M453 930v-930h-390v930h390zM444 1010h-360l-174 321h360z" />
    <glyph glyph-name="iacute" unicode="&#xed;" horiz-adv-x="516" 
d="M430 1010h-360l174 321h360zM453 930v-930h-390v930h390z" />
    <glyph glyph-name="icircumflex" unicode="&#xee;" horiz-adv-x="516" 
d="M397 1331l166 -321h-264l-41 104l-41 -104h-264l166 321h278zM453 930v-930h-390v930h390z" />
    <glyph glyph-name="idieresis" unicode="&#xef;" horiz-adv-x="516" 
d="M-115 1155q0 74 52.5 127t125.5 53q74 0 127.5 -53.5t53.5 -126.5t-53.5 -125.5t-127.5 -52.5q-73 0 -125.5 52.5t-52.5 125.5zM274 1155q0 74 53 127t126 53t126.5 -53.5t53.5 -126.5t-53 -125.5t-127 -52.5t-126.5 52.5t-52.5 125.5zM453 930v-930h-390v930h390z" />
    <glyph glyph-name="eth" unicode="&#xf0;" horiz-adv-x="1032" 
d="M264 961l-55 143l123 37q-162 128 -236 182v8h469q86 -72 103 -88l149 45l53 -143l-84 -27q224 -267 224 -606q0 -249 -135 -390.5t-359 -141.5q-220 0 -356.5 134t-136.5 351q0 214 134 342.5t343 128.5q27 0 45 -6h4q-23 31 -84 92zM629 463q0 76 -30 120t-83 44
q-52 0 -81 -44t-29 -120t29 -121t81 -45q53 0 83 45t30 121z" />
    <glyph glyph-name="ntilde" unicode="&#xf1;" horiz-adv-x="1091" 
d="M63 0v930h390v-76q39 44 104.5 70t142.5 26q152 0 241 -91.5t89 -246.5v-612h-389v508q0 44 -23 72t-67 28q-36 0 -62.5 -20.5t-35.5 -55.5v-532h-390zM676 1331h205q0 -330 -187 -330q-52 0 -109.5 28t-88.5 28q-20 0 -32.5 -13.5t-12.5 -33.5h-205q0 329 186 329
q52 0 110.5 -27.5t88.5 -27.5q20 0 32.5 13.5t12.5 33.5z" />
    <glyph glyph-name="ograve" unicode="&#xf2;" horiz-adv-x="1032" 
d="M1010 465q0 -217 -136.5 -351t-357.5 -134q-220 0 -356.5 134t-136.5 351t136.5 351t356.5 134q221 0 357.5 -134t136.5 -351zM629 465q0 76 -30 122t-83 46q-52 0 -81 -46t-29 -122t29 -122t81 -46q53 0 83 46t30 122zM702 1010h-360l-174 321h360z" />
    <glyph glyph-name="oacute" unicode="&#xf3;" horiz-adv-x="1032" 
d="M688 1010h-360l174 321h360zM1010 465q0 -217 -136.5 -351t-357.5 -134q-220 0 -356.5 134t-136.5 351t136.5 351t356.5 134q221 0 357.5 -134t136.5 -351zM629 465q0 76 -30 122t-83 46q-52 0 -81 -46t-29 -122t29 -122t81 -46q53 0 83 46t30 122z" />
    <glyph glyph-name="ocircumflex" unicode="&#xf4;" horiz-adv-x="1032" 
d="M655 1331l199 -321h-276l-62 84l-61 -84h-277l199 321h278zM1010 465q0 -217 -136.5 -351t-357.5 -134q-220 0 -356.5 134t-136.5 351t136.5 351t356.5 134q221 0 357.5 -134t136.5 -351zM629 465q0 76 -30 122t-83 46q-52 0 -81 -46t-29 -122t29 -122t81 -46q53 0 83 46
t30 122z" />
    <glyph glyph-name="otilde" unicode="&#xf5;" horiz-adv-x="1032" 
d="M1010 465q0 -217 -136.5 -351t-357.5 -134q-220 0 -356.5 134t-136.5 351t136.5 351t356.5 134q221 0 357.5 -134t136.5 -351zM629 465q0 76 -30 122t-83 46q-52 0 -81 -46t-29 -122t29 -122t81 -46q53 0 83 46t30 122zM629 1331h205q0 -330 -187 -330q-51 0 -109.5 28
t-88.5 28q-20 0 -33 -13.5t-13 -33.5h-204q0 329 186 329q51 0 110 -27.5t89 -27.5q20 0 32.5 13.5t12.5 33.5z" />
    <glyph glyph-name="odieresis" unicode="&#xf6;" horiz-adv-x="1032" 
d="M143 1155q0 74 53 127t126 53q74 0 127 -53.5t53 -126.5t-53 -125.5t-127 -52.5t-126.5 52.5t-52.5 125.5zM532 1155q0 74 53 127t126 53t126.5 -53.5t53.5 -126.5t-53 -125.5t-127 -52.5t-126.5 52.5t-52.5 125.5zM1010 465q0 -217 -136.5 -351t-357.5 -134
q-220 0 -356.5 134t-136.5 351t136.5 351t356.5 134q221 0 357.5 -134t136.5 -351zM629 465q0 76 -30 122t-83 46q-52 0 -81 -46t-29 -122t29 -122t81 -46q53 0 83 46t30 122z" />
    <glyph glyph-name="divide" unicode="&#xf7;" horiz-adv-x="1128" 
d="M78 473v281h973v-281h-973zM379 995q0 75 54.5 128t131.5 53t132 -53t55 -128t-55 -127.5t-132 -52.5t-131.5 52.5t-54.5 127.5zM379 229q0 75 54.5 128t131.5 53t132 -53t55 -128t-55 -127.5t-132 -52.5t-131.5 52.5t-54.5 127.5z" />
    <glyph glyph-name="oslash" unicode="&#xf8;" horiz-adv-x="1052" 
d="M53 55l86 90q-106 128 -106 320q0 217 136.5 351t356.5 134q175 0 301 -90l86 90l86 -76l-88 -90q109 -131 109 -319q0 -217 -136.5 -351t-357.5 -134q-173 0 -301 88l-86 -88zM647 465q0 27 -2 39l-184 -191q26 -26 65 -26q53 0 87 51t34 127zM408 465q0 -27 2 -39
l182 190q-30 27 -66 27q-52 0 -85 -51t-33 -127z" />
    <glyph glyph-name="ugrave" unicode="&#xf9;" horiz-adv-x="1087" 
d="M1024 930v-930h-387v76q-39 -44 -105 -70t-143 -26q-151 0 -239.5 91t-88.5 246v613h390v-514q0 -44 22 -72.5t66 -28.5q33 0 60 21t36 55v539h389zM729 1010h-360l-174 321h360z" />
    <glyph glyph-name="uacute" unicode="&#xfa;" horiz-adv-x="1087" 
d="M715 1010h-361l174 321h361zM1024 930v-930h-387v76q-39 -44 -105 -70t-143 -26q-151 0 -239.5 91t-88.5 246v613h390v-514q0 -44 22 -72.5t66 -28.5q33 0 60 21t36 55v539h389z" />
    <glyph glyph-name="ucircumflex" unicode="&#xfb;" horiz-adv-x="1087" 
d="M682 1331l199 -321h-277l-61 84l-62 -84h-276l198 321h279zM1024 930v-930h-387v76q-39 -44 -105 -70t-143 -26q-151 0 -239.5 91t-88.5 246v613h390v-514q0 -44 22 -72.5t66 -28.5q33 0 60 21t36 55v539h389z" />
    <glyph glyph-name="udieresis" unicode="&#xfc;" horiz-adv-x="1087" 
d="M170 1155q0 74 52.5 127t125.5 53q74 0 127 -53.5t53 -126.5t-53 -125.5t-127 -52.5t-126 52.5t-52 125.5zM559 1155q0 74 52.5 127t125.5 53q74 0 127.5 -53.5t53.5 -126.5t-53.5 -125.5t-127.5 -52.5q-73 0 -125.5 52.5t-52.5 125.5zM1024 930v-930h-387v76
q-39 -44 -105 -70t-143 -26q-151 0 -239.5 91t-88.5 246v613h390v-514q0 -44 22 -72.5t66 -28.5q33 0 60 21t36 55v539h389z" />
    <glyph glyph-name="yacute" unicode="&#xfd;" horiz-adv-x="1060" 
d="M588 -313h-385l139 362l-342 881h401l142 -441l135 441h383zM719 1010h-361l174 321h361z" />
    <glyph glyph-name="thorn" unicode="&#xfe;" horiz-adv-x="1103" 
d="M453 72v-385h-390v1644h390v-473q34 38 96.5 65t128.5 27q128 0 221 -66t137.5 -174.5t44.5 -244.5t-44.5 -244.5t-137.5 -174.5t-221 -66q-66 0 -128.5 27t-96.5 65zM453 557v-184q12 -29 41.5 -47.5t66.5 -18.5q60 0 95.5 44.5t35.5 113.5t-35.5 113.5t-95.5 44.5
q-39 0 -67.5 -18t-40.5 -48z" />
    <glyph glyph-name="ydieresis" unicode="&#xff;" horiz-adv-x="1060" 
d="M588 -313h-385l139 362l-342 881h401l142 -441l135 441h383zM174 1155q0 74 52.5 127t125.5 53q74 0 127 -53.5t53 -126.5t-53 -125.5t-127 -52.5t-126 52.5t-52 125.5zM563 1155q0 74 52.5 127t125.5 53q74 0 127.5 -53.5t53.5 -126.5t-53.5 -125.5t-127.5 -52.5
q-73 0 -125.5 52.5t-52.5 125.5z" />
    <glyph glyph-name="Amacron" unicode="&#x100;" horiz-adv-x="1363" 
d="M475 1257h414l475 -1257h-401l-66 182h-442l-66 -182h-389zM387 1358v256h592v-256h-592zM676 793l-105 -289h209z" />
    <glyph glyph-name="amacron" unicode="&#x101;" horiz-adv-x="1001" 
d="M954 0h-376v45q-24 -24 -87.5 -42.5t-132.5 -18.5q-142 0 -237.5 76.5t-95.5 220.5q0 133 100.5 212.5t253.5 79.5q55 0 113 -14.5t86 -34.5v51q0 33 -19 56.5t-59 23.5q-62 0 -80 -49h-365q20 149 143 247.5t316 98.5q210 0 325 -105.5t115 -297.5v-549zM578 268v41
q-30 45 -107 45q-37 0 -63.5 -16.5t-26.5 -48.5t26.5 -49t63.5 -17q77 0 107 45zM252 1010v256h551v-256h-551z" />
    <glyph glyph-name="Abreve" unicode="&#x102;" horiz-adv-x="1363" 
d="M475 1257h414l475 -1257h-401l-66 182h-442l-66 -182h-389zM682 1337q-141 0 -228 84.5t-87 241.5h264q0 -76 51 -76q53 0 53 76h262q0 -157 -87 -241.5t-228 -84.5zM676 793l-105 -289h209z" />
    <glyph glyph-name="abreve" unicode="&#x103;" horiz-adv-x="1001" 
d="M954 0h-376v45q-24 -24 -87.5 -42.5t-132.5 -18.5q-142 0 -237.5 76.5t-95.5 220.5q0 133 100.5 212.5t253.5 79.5q55 0 113 -14.5t86 -34.5v51q0 33 -19 56.5t-59 23.5q-62 0 -80 -49h-365q20 149 143 247.5t316 98.5q210 0 325 -105.5t115 -297.5v-549zM578 268v41
q-30 45 -107 45q-37 0 -63.5 -16.5t-26.5 -48.5t26.5 -49t63.5 -17q77 0 107 45zM526 991q-141 0 -228 84.5t-87 241.5h264q0 -76 51 -76q54 0 54 76h262q0 -157 -87.5 -241.5t-228.5 -84.5z" />
    <glyph glyph-name="Aogonek" unicode="&#x104;" horiz-adv-x="1363" 
d="M475 1257h414l475 -1257q-13 -12 -27 -26t-22.5 -22t-18 -17t-14.5 -14.5t-10.5 -11.5t-8 -10t-5 -9t-3 -8.5t-0.5 -8.5q0 -33 39 -33h7.5t7 1t6 1.5t7.5 2.5t7 3t7.5 4t7.5 4t9.5 5t10.5 6v-205q-68 -35 -141 -35q-89 0 -149 43t-60 127q0 53 29 100t85 103h-165
l-66 182h-442l-66 -182h-389zM676 793l-105 -289h209z" />
    <glyph glyph-name="aogonek" unicode="&#x105;" horiz-adv-x="1001" 
d="M578 268v41q-30 45 -107 45q-37 0 -63.5 -16.5t-26.5 -48.5t26.5 -49t63.5 -17q77 0 107 45zM719 0h-141v45q-24 -24 -87.5 -42.5t-132.5 -18.5q-142 0 -237.5 76.5t-95.5 220.5q0 133 100.5 212.5t253.5 79.5q55 0 113 -14.5t86 -34.5v51q0 33 -19 56.5t-59 23.5
q-62 0 -80 -49h-365q20 149 143 247.5t316 98.5q210 0 325 -105.5t115 -297.5v-549q-12 -12 -26.5 -26t-22.5 -21.5t-18 -17.5t-14.5 -15t-10 -11.5t-8 -10t-5 -8.5t-3 -8.5t-0.5 -8.5q0 -33 39 -33q20 0 69 27v-205q-68 -35 -141 -35q-89 0 -149 43t-60 127q0 53 29 99.5
t86 103.5z" />
    <glyph glyph-name="Cacute" unicode="&#x106;" horiz-adv-x="1241" 
d="M29 629q0 187 78.5 335t220.5 231t323 83q238 0 382.5 -127t178.5 -330h-397q-18 52 -60 81.5t-104 29.5q-105 0 -164 -84.5t-59 -218.5q0 -133 59.5 -218t163.5 -85q62 0 104.5 29.5t59.5 82.5h397q-16 -98 -59.5 -180.5t-112 -145t-168.5 -97.5t-221 -35
q-181 0 -323 83t-220.5 231t-78.5 335zM856 1358h-381l174 280h381z" />
    <glyph glyph-name="cacute" unicode="&#x107;" horiz-adv-x="987" 
d="M682 1010h-360l174 321h360zM23 465q0 216 133.5 350.5t353.5 134.5q195 0 315.5 -109t139.5 -288h-373q-3 33 -24.5 55.5t-59.5 22.5q-47 0 -74.5 -44t-27.5 -122t27.5 -122t74.5 -44q38 0 59.5 22.5t24.5 55.5h373q-19 -179 -139.5 -288t-315.5 -109
q-220 0 -353.5 134.5t-133.5 350.5z" />
    <glyph glyph-name="Ccircumflex" unicode="&#x108;" horiz-adv-x="1241" 
d="M29 629q0 187 78.5 335t220.5 231t323 83q238 0 382.5 -127t178.5 -330h-397q-18 52 -60 81.5t-104 29.5q-105 0 -164 -84.5t-59 -218.5q0 -133 59.5 -218t163.5 -85q62 0 104.5 29.5t59.5 82.5h397q-16 -98 -59.5 -180.5t-112 -145t-168.5 -97.5t-221 -35
q-181 0 -323 83t-220.5 231t-78.5 335zM803 1638l239 -280h-305l-73 76l-74 -76h-305l239 280h279z" />
    <glyph glyph-name="ccircumflex" unicode="&#x109;" horiz-adv-x="987" 
d="M649 1331l199 -321h-277l-61 84l-61 -84h-277l199 321h278zM23 465q0 216 133.5 350.5t353.5 134.5q195 0 315.5 -109t139.5 -288h-373q-3 33 -24.5 55.5t-59.5 22.5q-47 0 -74.5 -44t-27.5 -122t27.5 -122t74.5 -44q38 0 59.5 22.5t24.5 55.5h373q-19 -179 -139.5 -288
t-315.5 -109q-220 0 -353.5 134.5t-133.5 350.5z" />
    <glyph glyph-name="Cdotaccent" unicode="&#x10a;" horiz-adv-x="1241" 
d="M879 1538q0 -92 -62 -146.5t-153 -54.5t-153 54.5t-62 146.5t62 146.5t153 54.5t153 -54.5t62 -146.5zM29 629q0 187 78.5 335t220.5 231t323 83q238 0 382.5 -127t178.5 -330h-397q-18 52 -60 81.5t-104 29.5q-105 0 -164 -84.5t-59 -218.5q0 -133 59.5 -218t163.5 -85
q62 0 104.5 29.5t59.5 82.5h397q-16 -98 -59.5 -180.5t-112 -145t-168.5 -97.5t-221 -35q-181 0 -323 83t-220.5 231t-78.5 335z" />
    <glyph glyph-name="cdotaccent" unicode="&#x10b;" horiz-adv-x="987" 
d="M23 465q0 216 133.5 350.5t353.5 134.5q195 0 315.5 -109t139.5 -288h-373q-3 33 -24.5 55.5t-59.5 22.5q-47 0 -74.5 -44t-27.5 -122t27.5 -122t74.5 -44q38 0 59.5 22.5t24.5 55.5h373q-19 -179 -139.5 -288t-315.5 -109q-220 0 -353.5 134.5t-133.5 350.5zM725 1188
q0 -92 -62 -146.5t-153 -54.5t-153 54.5t-62 146.5t62 146.5t153 54.5t153 -54.5t62 -146.5z" />
    <glyph glyph-name="Ccaron" unicode="&#x10c;" horiz-adv-x="1241" 
d="M526 1350l-239 280h305l74 -76l73 76h305l-239 -280h-279zM29 629q0 187 78.5 335t220.5 231t323 83q238 0 382.5 -127t178.5 -330h-397q-18 52 -60 81.5t-104 29.5q-105 0 -164 -84.5t-59 -218.5q0 -133 59.5 -218t163.5 -85q62 0 104.5 29.5t59.5 82.5h397
q-16 -98 -59.5 -180.5t-112 -145t-168.5 -97.5t-221 -35q-181 0 -323 83t-220.5 231t-78.5 335z" />
    <glyph glyph-name="ccaron" unicode="&#x10d;" horiz-adv-x="987" 
d="M848 1331l-199 -321h-278l-199 321h277l61 -84l61 84h277zM23 465q0 216 133.5 350.5t353.5 134.5q195 0 315.5 -109t139.5 -288h-373q-3 33 -24.5 55.5t-59.5 22.5q-47 0 -74.5 -44t-27.5 -122t27.5 -122t74.5 -44q38 0 59.5 22.5t24.5 55.5h373q-19 -179 -139.5 -288
t-315.5 -109q-220 0 -353.5 134.5t-133.5 350.5z" />
    <glyph glyph-name="Dcaron" unicode="&#x10e;" horiz-adv-x="1249" 
d="M406 1350l-240 280h305l74 -76l73 76h306l-240 -280h-278zM457 340h96q131 0 203.5 77.5t72.5 211.5q0 135 -72.5 213t-203.5 78h-96v-580zM68 0v1257h505q304 0 476 -169t172 -459t-172 -459.5t-476 -169.5h-505z" />
    <glyph glyph-name="dcaron" unicode="&#x10f;" horiz-adv-x="1103" 
d="M1378 989h-299l99 342h303zM651 0v72q-34 -38 -96.5 -65t-128.5 -27q-128 0 -221 66t-137.5 174.5t-44.5 244.5t44.5 244.5t137.5 174.5t221 66q66 0 128.5 -27t96.5 -65v473h389v-1331h-389zM651 373v184q-12 29 -41.5 47.5t-66.5 18.5q-60 0 -95.5 -44.5t-35.5 -113.5
t35.5 -113.5t95.5 -44.5q39 0 67.5 18t40.5 48z" />
    <glyph glyph-name="Dcroat" unicode="&#x110;" horiz-adv-x="1284" 
d="M20 487v297h82v473h506q304 0 475.5 -169t171.5 -459t-172 -459.5t-475 -169.5h-506v487h-82zM492 340h96q131 0 203.5 77.5t72.5 211.5q0 135 -72.5 213t-203.5 78h-96v-136h143v-297h-143v-147z" />
    <glyph glyph-name="dcroat" unicode="&#x111;" horiz-adv-x="1103" 
d="M506 989v248h145v94h389v-94h82v-248h-82v-989h-389v72q-34 -38 -96.5 -65t-128.5 -27q-128 0 -221 66t-137.5 174.5t-44.5 244.5t44.5 244.5t137.5 174.5t221 66q66 0 128.5 -27t96.5 -65v131h-145zM651 373v184q-12 29 -41.5 47.5t-66.5 18.5q-60 0 -95.5 -44.5
t-35.5 -113.5t35.5 -113.5t95.5 -44.5q39 0 67.5 18t40.5 48z" />
    <glyph glyph-name="Emacron" unicode="&#x112;" horiz-adv-x="1069" 
d="M258 1358v256h592v-256h-592zM68 1257h946v-337h-555v-119h508v-328h-508v-133h555v-340h-946v1257z" />
    <glyph glyph-name="emacron" unicode="&#x113;" horiz-adv-x="997" 
d="M242 1010v256h551v-256h-551zM612 344h363q-26 -172 -149 -268t-314 -96q-223 0 -356 133.5t-133 351.5q0 217 135.5 351t347.5 134q220 0 344.5 -129t124.5 -342v-86h-582q21 -119 119 -119q80 0 100 70zM506 655q-79 0 -105 -96h201q-6 43 -31.5 69.5t-64.5 26.5z" />
    <glyph glyph-name="Ebreve" unicode="&#x114;" horiz-adv-x="1069" 
d="M553 1337q-141 0 -228 84.5t-87 241.5h264q0 -76 51 -76q53 0 53 76h262q0 -157 -87 -241.5t-228 -84.5zM68 1257h946v-337h-555v-119h508v-328h-508v-133h555v-340h-946v1257z" />
    <glyph glyph-name="ebreve" unicode="&#x115;" horiz-adv-x="997" 
d="M612 344h363q-26 -172 -149 -268t-314 -96q-223 0 -356 133.5t-133 351.5q0 217 135.5 351t347.5 134q220 0 344.5 -129t124.5 -342v-86h-582q21 -119 119 -119q80 0 100 70zM506 655q-79 0 -105 -96h201q-6 43 -31.5 69.5t-64.5 26.5zM516 991q-141 0 -228 84.5
t-87 241.5h264q0 -76 51 -76q53 0 53 76h262q0 -157 -87 -241.5t-228 -84.5z" />
    <glyph glyph-name="Edotaccent" unicode="&#x116;" horiz-adv-x="1069" 
d="M768 1538q0 -92 -62 -146.5t-153 -54.5t-153 54.5t-62 146.5t62 146.5t153 54.5t153 -54.5t62 -146.5zM68 1257h946v-337h-555v-119h508v-328h-508v-133h555v-340h-946v1257z" />
    <glyph glyph-name="edotaccent" unicode="&#x117;" horiz-adv-x="997" 
d="M612 344h363q-26 -172 -149 -268t-314 -96q-223 0 -356 133.5t-133 351.5q0 217 135.5 351t347.5 134q220 0 344.5 -129t124.5 -342v-86h-582q21 -119 119 -119q80 0 100 70zM506 655q-79 0 -105 -96h201q-6 43 -31.5 69.5t-64.5 26.5zM731 1188q0 -92 -62 -146.5
t-153 -54.5t-153 54.5t-62 146.5t62 146.5t153 54.5t153 -54.5t62 -146.5z" />
    <glyph glyph-name="Eogonek" unicode="&#x118;" horiz-adv-x="1069" 
d="M68 1257h946v-337h-555v-119h508v-328h-508v-133h555v-340h-76q-82 -84 -91 -97q-11 -15 -11 -30q0 -33 38 -33h7.5t7 1t6 1.5t7.5 2.5t7 3t7.5 4t7.5 4t9.5 5t10.5 6v-205q-68 -35 -141 -35q-89 0 -149 43t-60 127q0 53 29 99.5t86 103.5h-641v1257z" />
    <glyph glyph-name="eogonek" unicode="&#x119;" horiz-adv-x="997" 
d="M506 655q-79 0 -105 -96h201q-6 43 -31.5 69.5t-64.5 26.5zM530 -20h-18q-223 0 -356 133.5t-133 351.5q0 217 135.5 351t347.5 134q220 0 344.5 -129t124.5 -342v-86h-582q21 -119 119 -119q80 0 100 70h363q-16 -155 -144 -270q-85 -74 -119 -119t-34 -82q0 -33 39 -33
q5 0 9 0.5t9 2t8 2.5t9.5 4t9 4.5t11.5 6.5t13 7v-205q-68 -35 -141 -35q-89 0 -149 43t-60 127q0 86 94 183z" />
    <glyph glyph-name="Ecaron" unicode="&#x11a;" horiz-adv-x="1069" 
d="M414 1350l-240 280h305l74 -76l74 76h305l-240 -280h-278zM68 1257h946v-337h-555v-119h508v-328h-508v-133h555v-340h-946v1257z" />
    <glyph glyph-name="ecaron" unicode="&#x11b;" horiz-adv-x="997" 
d="M854 1331l-199 -321h-278l-199 321h277l61 -84l62 84h276zM612 344h363q-26 -172 -149 -268t-314 -96q-223 0 -356 133.5t-133 351.5q0 217 135.5 351t347.5 134q220 0 344.5 -129t124.5 -342v-86h-582q21 -119 119 -119q80 0 100 70zM506 655q-79 0 -105 -96h201
q-6 43 -31.5 69.5t-64.5 26.5z" />
    <glyph glyph-name="Gcircumflex" unicode="&#x11c;" horiz-adv-x="1280" 
d="M815 1638l240 -280h-305l-74 76l-74 -76h-305l240 280h278zM852 403h-147v281h546v-139q0 -260 -158.5 -412.5t-422.5 -152.5q-188 0 -334 82.5t-226.5 230t-80.5 336.5t80.5 336.5t226.5 230t334 82.5q246 0 394.5 -127t184.5 -332h-407q-39 113 -172 113
q-116 0 -179 -84t-63 -219q0 -140 65 -221.5t177 -81.5q132 0 182 77z" />
    <glyph glyph-name="gcircumflex" unicode="&#x11d;" horiz-adv-x="1079" 
d="M723 1331l199 -321h-277l-61 84l-62 -84h-276l198 321h279zM631 63v82q-73 -88 -209 -88q-187 0 -293 123.5t-106 323.5q0 199 106 322.5t293 123.5q136 0 209 -88v68h385v-764q0 -243 -137.5 -371.5t-370.5 -128.5q-195 0 -325.5 90.5t-159.5 253.5h372q23 -69 113 -69
q123 0 123 122zM631 416v176q-13 25 -41.5 42t-63.5 17q-57 0 -90 -40t-33 -107t33.5 -107.5t89.5 -40.5q35 0 63.5 17.5t41.5 42.5z" />
    <glyph glyph-name="Gbreve" unicode="&#x11e;" horiz-adv-x="1280" 
d="M676 1337q-141 0 -228.5 84.5t-87.5 241.5h265q0 -76 51 -76q53 0 53 76h262q0 -157 -87 -241.5t-228 -84.5zM852 403h-147v281h546v-139q0 -260 -158.5 -412.5t-422.5 -152.5q-188 0 -334 82.5t-226.5 230t-80.5 336.5t80.5 336.5t226.5 230t334 82.5q246 0 394.5 -127
t184.5 -332h-407q-39 113 -172 113q-116 0 -179 -84t-63 -219q0 -140 65 -221.5t177 -81.5q132 0 182 77z" />
    <glyph glyph-name="gbreve" unicode="&#x11f;" horiz-adv-x="1079" 
d="M631 63v82q-73 -88 -209 -88q-187 0 -293 123.5t-106 323.5q0 199 106 322.5t293 123.5q136 0 209 -88v68h385v-764q0 -243 -137.5 -371.5t-370.5 -128.5q-195 0 -325.5 90.5t-159.5 253.5h372q23 -69 113 -69q123 0 123 122zM631 416v176q-13 25 -41.5 42t-63.5 17
q-57 0 -90 -40t-33 -107t33.5 -107.5t89.5 -40.5q35 0 63.5 17.5t41.5 42.5zM584 991q-141 0 -228.5 84.5t-87.5 241.5h264q0 -76 52 -76q53 0 53 76h262q0 -157 -87 -241.5t-228 -84.5z" />
    <glyph glyph-name="Gdotaccent" unicode="&#x120;" horiz-adv-x="1280" 
d="M891 1538q0 -92 -62 -146.5t-153 -54.5t-153 54.5t-62 146.5t62 146.5t153 54.5t153 -54.5t62 -146.5zM852 403h-147v281h546v-139q0 -260 -158.5 -412.5t-422.5 -152.5q-188 0 -334 82.5t-226.5 230t-80.5 336.5t80.5 336.5t226.5 230t334 82.5q246 0 394.5 -127
t184.5 -332h-407q-39 113 -172 113q-116 0 -179 -84t-63 -219q0 -140 65 -221.5t177 -81.5q132 0 182 77z" />
    <glyph glyph-name="gdotaccent" unicode="&#x121;" horiz-adv-x="1079" 
d="M799 1188q0 -92 -62 -146.5t-153 -54.5t-153 54.5t-62 146.5t62 146.5t153 54.5t153 -54.5t62 -146.5zM631 63v82q-73 -88 -209 -88q-187 0 -293 123.5t-106 323.5q0 199 106 322.5t293 123.5q136 0 209 -88v68h385v-764q0 -243 -137.5 -371.5t-370.5 -128.5
q-195 0 -325.5 90.5t-159.5 253.5h372q23 -69 113 -69q123 0 123 122zM631 416v176q-13 25 -41.5 42t-63.5 17q-57 0 -90 -40t-33 -107t33.5 -107.5t89.5 -40.5q35 0 63.5 17.5t41.5 42.5z" />
    <glyph glyph-name="Gcommaaccent" unicode="&#x122;" horiz-adv-x="1280" 
d="M469 -506l111 135q-42 19 -69.5 58t-27.5 94q0 72 53.5 119t135.5 47q78 0 133 -48.5t55 -131.5q0 -54 -23 -99.5t-69 -99.5l-61 -74h-238zM852 403h-147v281h546v-139q0 -260 -158.5 -412.5t-422.5 -152.5q-188 0 -334 82.5t-226.5 230t-80.5 336.5t80.5 336.5
t226.5 230t334 82.5q246 0 394.5 -127t184.5 -332h-407q-39 113 -172 113q-116 0 -179 -84t-63 -219q0 -140 65 -221.5t177 -81.5q132 0 182 77z" />
    <glyph glyph-name="gcommaaccent" unicode="&#x123;" horiz-adv-x="1079" 
d="M784 1425l-118 -143q42 -19 69 -58t27 -94q0 -72 -53.5 -118.5t-135.5 -46.5q-78 0 -133 48.5t-55 131.5q0 54 23 98.5t69 99.5l70 82h237zM631 63v82q-73 -88 -209 -88q-187 0 -293 123.5t-106 323.5q0 199 106 322.5t293 123.5q136 0 209 -88v68h385v-764
q0 -243 -137.5 -371.5t-370.5 -128.5q-195 0 -325.5 90.5t-159.5 253.5h372q23 -69 113 -69q123 0 123 122zM631 416v176q-13 25 -41.5 42t-63.5 17q-57 0 -90 -40t-33 -107t33.5 -107.5t89.5 -40.5q35 0 63.5 17.5t41.5 42.5z" />
    <glyph glyph-name="Hcircumflex" unicode="&#x124;" horiz-adv-x="1329" 
d="M864 1257h398v-1257h-398v467h-399v-467h-397v1257h397v-452h399v452zM803 1638l239 -280h-305l-73 76l-74 -76h-305l239 280h279z" />
    <glyph glyph-name="hcircumflex" unicode="&#x125;" horiz-adv-x="1091" 
d="M63 0v1331h390v-477q39 44 104.5 70t142.5 26q152 0 241 -91.5t89 -246.5v-612h-389v508q0 44 -23 72t-67 28q-36 0 -62.5 -20.5t-35.5 -55.5v-532h-390zM674 1659l239 -281h-305l-73 76l-74 -76h-305l239 281h279z" />
    <glyph glyph-name="Hbar" unicode="&#x126;" horiz-adv-x="1398" 
d="M20 827v297h82v133h398v-133h399v133h397v-133h82v-297h-82v-827h-397v369h-399v-369h-398v827h-82zM500 666h399v161h-399v-161z" />
    <glyph glyph-name="hbar" unicode="&#x127;" horiz-adv-x="1091" 
d="M-18 989v248h81v94h390v-94h145v-248h-145v-135q39 44 104.5 70t142.5 26q152 0 241 -91.5t89 -246.5v-612h-389v508q0 44 -23 72t-67 28q-36 0 -62.5 -20.5t-35.5 -55.5v-532h-390v989h-81z" />
    <glyph glyph-name="Itilde" unicode="&#x128;" horiz-adv-x="532" 
d="M465 1257v-1257h-397v1257h397zM399 1671h205q0 -330 -186 -330q-51 0 -130.5 28t-109.5 28q-20 0 -32.5 -13.5t-12.5 -33.5h-205q0 329 187 329q51 0 130 -27.5t109 -27.5q20 0 32.5 13.5t12.5 33.5z" />
    <glyph glyph-name="itilde" unicode="&#x129;" horiz-adv-x="516" 
d="M342 1331h190q0 -330 -161 -330q-45 0 -89 28t-69 28q-18 0 -28.5 -13t-10.5 -34h-190q0 329 161 329q45 0 88.5 -27.5t69.5 -27.5q18 0 28.5 13t10.5 34zM453 930v-930h-390v930h390z" />
    <glyph glyph-name="Imacron" unicode="&#x12a;" horiz-adv-x="532" 
d="M465 1257v-1257h-397v1257h397zM-29 1358v256h592v-256h-592z" />
    <glyph glyph-name="imacron" unicode="&#x12b;" horiz-adv-x="516" 
d="M453 930v-930h-390v930h390zM16 1010v256h484v-256h-484z" />
    <glyph glyph-name="Ibreve" unicode="&#x12c;" horiz-adv-x="532" 
d="M465 1257v-1257h-397v1257h397zM266 1337q-141 0 -228 84.5t-87 241.5h264q0 -76 51 -76q53 0 53 76h263q0 -157 -87.5 -241.5t-228.5 -84.5z" />
    <glyph glyph-name="ibreve" unicode="&#x12d;" horiz-adv-x="516" 
d="M256 991q-125 0 -202 84.5t-77 241.5h234q0 -76 47 -76t47 76h234q0 -157 -78.5 -241.5t-204.5 -84.5zM453 930v-930h-390v930h390z" />
    <glyph glyph-name="Iogonek" unicode="&#x12e;" horiz-adv-x="532" 
d="M465 1257v-1257q-13 -12 -27 -26t-22.5 -22t-18 -17t-14.5 -14.5t-10.5 -11.5t-8 -10t-5 -9t-3 -8.5t-0.5 -8.5q0 -33 39 -33q21 0 70 27v-205q-68 -35 -141 -35q-89 0 -149 43t-60 127q0 53 29 100t85 103h-161v1257h397z" />
    <glyph glyph-name="iogonek" unicode="&#x12f;" horiz-adv-x="516" 
d="M453 930v-930q-13 -12 -27 -26t-22.5 -22t-18 -17t-14.5 -14.5t-10.5 -11.5t-8 -10t-5 -9t-3 -8.5t-0.5 -8.5q0 -33 39 -33q21 0 70 27v-205q-68 -35 -142 -35q-89 0 -149 43t-60 127q0 53 29 99.5t86 103.5h-154v930h390zM473 1165q0 -92 -62 -146t-153 -54t-153 54
t-62 146t62 146.5t153 54.5t153 -54.5t62 -146.5z" />
    <glyph glyph-name="Idotaccent" unicode="&#x130;" horiz-adv-x="532" 
d="M465 1257v-1257h-397v1257h397zM481 1538q0 -92 -62 -146.5t-153 -54.5t-153 54.5t-62 146.5t62 146.5t153 54.5t153 -54.5t62 -146.5z" />
    <glyph glyph-name="dotlessi" unicode="&#x131;" horiz-adv-x="516" 
d="M453 930v-930h-390v930h390z" />
    <glyph glyph-name="IJ" unicode="&#x132;" horiz-adv-x="1644" 
d="M502 492h399q1 -77 38.5 -118.5t104.5 -41.5q77 0 111.5 46t34.5 138v741h397v-745q0 -111 -27.5 -200t-76 -150.5t-117.5 -102.5t-149 -60t-173 -19q-245 0 -390.5 139.5t-151.5 372.5zM465 1257v-1257h-397v1257h397z" />
    <glyph glyph-name="ij" unicode="&#x133;" horiz-adv-x="1032" 
d="M453 930v-930h-390v930h390zM473 1165q0 -92 -62 -146t-153 -54t-153 54t-62 146t62 146.5t153 54.5t153 -54.5t62 -146.5zM969 930v-848q0 -198 -98.5 -307t-284.5 -109q-78 0 -137 17v284q24 -4 38 -4q47 0 70 19.5t23 70.5v877h389zM989 1165q0 -92 -62 -146t-153 -54
t-153 54t-62 146t62 146.5t153 54.5t153 -54.5t62 -146.5z" />
    <glyph glyph-name="Jcircumflex" unicode="&#x134;" horiz-adv-x="1173" 
d="M31 492h399q1 -77 38.5 -118.5t104.5 -41.5q77 0 111.5 46t34.5 138v741h397v-745q0 -111 -27.5 -200t-76 -150.5t-117.5 -102.5t-149 -60t-173 -19q-245 0 -390.5 139.5t-151.5 372.5zM1057 1638l239 -280h-305l-73 76l-74 -76h-305l239 280h279z" />
    <glyph glyph-name="jcircumflex" unicode="&#x135;" horiz-adv-x="516" 
d="M397 1331l166 -321h-264l-41 104l-41 -104h-264l166 321h278zM453 930v-848q0 -198 -98.5 -307t-284.5 -109q-78 0 -138 17v284q24 -4 39 -4q47 0 69.5 19.5t22.5 70.5v877h390z" />
    <glyph glyph-name="Kcommaaccent" unicode="&#x136;" horiz-adv-x="1275" 
d="M428 -506l111 135q-42 19 -69.5 58t-27.5 94q0 72 53.5 119t135.5 47q78 0 133 -48.5t55 -131.5q0 -54 -23 -99.5t-69 -99.5l-61 -74h-238zM465 1257v-466l338 466h454l-401 -540l420 -717h-459l-260 451l-92 -125v-326h-397v1257h397z" />
    <glyph glyph-name="kcommaaccent" unicode="&#x137;" horiz-adv-x="1122" 
d="M332 -506l110 135q-42 19 -69 58t-27 94q0 72 53.5 119t135.5 47q78 0 133 -48.5t55 -131.5q0 -54 -23 -99.5t-69 -99.5l-62 -74h-237zM680 0l-180 315l-47 -63v-252h-390v1331h390v-653l200 252h459l-328 -379l336 -551h-440z" />
    <glyph glyph-name="kgreenlandic" unicode="&#x138;" horiz-adv-x="1122" 
d="M680 0l-180 315l-47 -63v-252h-390v930h390v-252l200 252h459l-328 -379l336 -551h-440z" />
    <glyph glyph-name="Lacute" unicode="&#x139;" horiz-adv-x="1050" 
d="M473 1358h-381l174 280h381zM68 0v1257h397v-917h541v-340h-938z" />
    <glyph glyph-name="lacute" unicode="&#x13a;" horiz-adv-x="516" 
d="M444 1382h-381l175 281h380zM453 1331v-1331h-390v1331h390z" />
    <glyph glyph-name="Lcommaaccent" unicode="&#x13b;" horiz-adv-x="1050" 
d="M330 -506l110 135q-42 19 -69 58t-27 94q0 72 53 119t135 47q78 0 133.5 -48.5t55.5 -131.5q0 -54 -23 -99.5t-69 -99.5l-62 -74h-237zM68 0v1257h397v-917h541v-340h-938z" />
    <glyph glyph-name="lcommaaccent" unicode="&#x13c;" horiz-adv-x="516" 
d="M51 -506l111 135q-42 19 -69 58t-27 94q0 72 53 119t135 47q78 0 133 -48.5t55 -131.5q0 -54 -23 -99.5t-69 -99.5l-61 -74h-238zM453 1331v-1331h-390v1331h390z" />
    <glyph glyph-name="Lcaron" unicode="&#x13d;" horiz-adv-x="1050" 
d="M848 915h-299l98 342h303zM68 0v1257h397v-917h541v-340h-938z" />
    <glyph glyph-name="lcaron" unicode="&#x13e;" horiz-adv-x="516" 
d="M791 989h-299l98 342h303zM453 1331v-1331h-390v1331h390z" />
    <glyph glyph-name="Ldot" unicode="&#x13f;" horiz-adv-x="1050" 
d="M68 0v1257h397v-917h541v-340h-938zM989 758q0 -92 -62 -146.5t-153 -54.5t-153 54.5t-62 146.5t62 146t153 54t153 -54t62 -146z" />
    <glyph glyph-name="ldot" unicode="&#x140;" horiz-adv-x="946" 
d="M453 1331v-1331h-390v1331h390zM946 688q0 -92 -62 -146.5t-153 -54.5t-153 54.5t-62 146.5t62 146.5t153 54.5t153 -54.5t62 -146.5z" />
    <glyph glyph-name="Lslash" unicode="&#x141;" horiz-adv-x="1064" 
d="M0 381v291l82 33v552h397v-409l213 84v-291l-213 -84v-217h541v-340h-938v412z" />
    <glyph glyph-name="lslash" unicode="&#x142;" horiz-adv-x="634" 
d="M512 1331v-444l102 59v-270l-102 -60v-616h-389v416l-103 -60v271l103 59v645h389z" />
    <glyph glyph-name="Nacute" unicode="&#x143;" horiz-adv-x="1302" 
d="M838 1358h-381l174 280h381zM1235 1257v-1257h-326l-458 629v-629h-383v1257h370l414 -585v585h383z" />
    <glyph glyph-name="nacute" unicode="&#x144;" horiz-adv-x="1091" 
d="M735 1010h-360l174 321h360zM63 0v930h390v-76q39 44 104.5 70t142.5 26q152 0 241 -91.5t89 -246.5v-612h-389v508q0 44 -23 72t-67 28q-36 0 -62.5 -20.5t-35.5 -55.5v-532h-390z" />
    <glyph glyph-name="Ncommaaccent" unicode="&#x145;" horiz-adv-x="1302" 
d="M444 -506l111 135q-42 19 -69 58t-27 94q0 72 53 119t135 47q78 0 133.5 -48.5t55.5 -131.5q0 -54 -23.5 -99t-69.5 -100l-61 -74h-238zM1235 1257v-1257h-326l-458 629v-629h-383v1257h370l414 -585v585h383z" />
    <glyph glyph-name="ncommaaccent" unicode="&#x146;" horiz-adv-x="1091" 
d="M344 -506l111 135q-42 19 -69.5 58t-27.5 94q0 72 53.5 119t135.5 47q78 0 133 -48.5t55 -131.5q0 -54 -23 -99.5t-69 -99.5l-61 -74h-238zM63 0v930h390v-76q39 44 104.5 70t142.5 26q152 0 241 -91.5t89 -246.5v-612h-389v508q0 44 -23 72t-67 28q-36 0 -62.5 -20.5
t-35.5 -55.5v-532h-390z" />
    <glyph glyph-name="Ncaron" unicode="&#x147;" horiz-adv-x="1302" 
d="M512 1350l-240 280h306l73 -76l74 76h305l-239 -280h-279zM1235 1257v-1257h-326l-458 629v-629h-383v1257h370l414 -585v585h383z" />
    <glyph glyph-name="ncaron" unicode="&#x148;" horiz-adv-x="1091" 
d="M901 1331l-199 -321h-278l-199 321h277l61 -84l62 84h276zM63 0v930h390v-76q39 44 104.5 70t142.5 26q152 0 241 -91.5t89 -246.5v-612h-389v508q0 44 -23 72t-67 28q-36 0 -62.5 -20.5t-35.5 -55.5v-532h-390z" />
    <glyph glyph-name="Eng" unicode="&#x14a;" horiz-adv-x="1302" 
d="M586 -309v329q53 -16 106 -16q63 0 94.5 24.5t42.5 77.5l-378 523v-629h-383v1257h370l414 -585v585h383v-1124q0 -237 -126 -352t-347 -115q-81 0 -176 25z" />
    <glyph glyph-name="eng" unicode="&#x14b;" horiz-adv-x="1091" 
d="M641 53v455q0 44 -23 72t-67 28q-36 0 -62.5 -20.5t-35.5 -55.5v-532h-390v930h390v-76q39 44 104.5 70t142.5 26q152 0 241 -91.5t89 -246.5v-530q0 -198 -98.5 -307t-284.5 -109q-77 0 -137 17v284q24 -4 39 -4q47 0 69.5 19.5t22.5 70.5z" />
    <glyph glyph-name="Omacron" unicode="&#x14c;" horiz-adv-x="1325" 
d="M367 1358v256h591v-256h-591zM1296 629q0 -186 -79 -333.5t-224 -231.5t-331 -84q-185 0 -330 84t-224 231.5t-79 333.5q0 284 176 466.5t457 182.5t457.5 -182.5t176.5 -466.5zM897 629q0 139 -65 221t-170 82t-169.5 -81.5t-64.5 -221.5t64.5 -221.5t169.5 -81.5
t170 82t65 221z" />
    <glyph glyph-name="omacron" unicode="&#x14d;" horiz-adv-x="1032" 
d="M242 1010v256h551v-256h-551zM1010 465q0 -217 -136.5 -351t-357.5 -134q-220 0 -356.5 134t-136.5 351t136.5 351t356.5 134q221 0 357.5 -134t136.5 -351zM629 465q0 76 -30 122t-83 46q-52 0 -81 -46t-29 -122t29 -122t81 -46q53 0 83 46t30 122z" />
    <glyph glyph-name="Obreve" unicode="&#x14e;" horiz-adv-x="1325" 
d="M662 1337q-141 0 -228.5 84.5t-87.5 241.5h264q0 -76 52 -76q53 0 53 76h262q0 -157 -87 -241.5t-228 -84.5zM1296 629q0 -186 -79 -333.5t-224 -231.5t-331 -84q-185 0 -330 84t-224 231.5t-79 333.5q0 284 176 466.5t457 182.5t457.5 -182.5t176.5 -466.5zM897 629
q0 139 -65 221t-170 82t-169.5 -81.5t-64.5 -221.5t64.5 -221.5t169.5 -81.5t170 82t65 221z" />
    <glyph glyph-name="obreve" unicode="&#x14f;" horiz-adv-x="1032" 
d="M1010 465q0 -217 -136.5 -351t-357.5 -134q-220 0 -356.5 134t-136.5 351t136.5 351t356.5 134q221 0 357.5 -134t136.5 -351zM629 465q0 76 -30 122t-83 46q-52 0 -81 -46t-29 -122t29 -122t81 -46q53 0 83 46t30 122zM516 991q-141 0 -228 84.5t-87 241.5h264
q0 -76 51 -76q53 0 53 76h262q0 -157 -87 -241.5t-228 -84.5z" />
    <glyph glyph-name="Ohungarumlaut" unicode="&#x150;" horiz-adv-x="1325" 
d="M1296 629q0 -186 -79 -333.5t-224 -231.5t-331 -84q-185 0 -330 84t-224 231.5t-79 333.5q0 284 176 466.5t457 182.5t457.5 -182.5t176.5 -466.5zM897 629q0 139 -65 221t-170 82t-169.5 -81.5t-64.5 -221.5t64.5 -221.5t169.5 -81.5t170 82t65 221zM627 1358h-320
l174 280h320zM1008 1358h-320l174 280h320z" />
    <glyph glyph-name="ohungarumlaut" unicode="&#x151;" horiz-adv-x="1032" 
d="M481 1010h-299l174 321h299zM842 1010h-299l174 321h299zM1010 465q0 -217 -136.5 -351t-357.5 -134q-220 0 -356.5 134t-136.5 351t136.5 351t356.5 134q221 0 357.5 -134t136.5 -351zM629 465q0 76 -30 122t-83 46q-52 0 -81 -46t-29 -122t29 -122t81 -46q53 0 83 46
t30 122z" />
    <glyph glyph-name="OE" unicode="&#x152;" horiz-adv-x="1763" 
d="M1708 1257v-337h-514v-119h467v-328h-467v-133h514v-340h-1032q-303 0 -475 169.5t-172 459.5t171.5 459t475.5 169h1032zM696 340h107v580h-107q-131 0 -203.5 -78t-72.5 -213q0 -134 72.5 -211.5t203.5 -77.5z" />
    <glyph glyph-name="oe" unicode="&#x153;" horiz-adv-x="1574" 
d="M1090 -20q-162 0 -287 94q-129 -94 -287 -94q-220 0 -356.5 134t-136.5 351t136.5 351t356.5 134q162 0 291 -92q119 92 276 92q220 0 344.5 -129t124.5 -342v-86h-581q21 -119 119 -119q80 0 100 70h362q-26 -173 -148.5 -268.5t-313.5 -95.5zM629 465q0 76 -30 122
t-83 46q-52 0 -81 -46t-29 -122t29 -122t81 -46q53 0 83 46t30 122zM1083 655q-78 0 -104 -96h201q-6 42 -32 69t-65 27z" />
    <glyph glyph-name="Racute" unicode="&#x154;" horiz-adv-x="1198" 
d="M551 360h-92v-360h-391v1257h612q211 0 342 -122t131 -336q0 -131 -56.5 -228t-158.5 -151l260 -420h-436zM774 1358h-381l174 280h381zM459 928v-256h168q141 0 141 127q0 129 -141 129h-168z" />
    <glyph glyph-name="racute" unicode="&#x155;" horiz-adv-x="778" 
d="M588 1010h-361l174 321h361zM745 934v-369q-65 29 -141 29q-64 0 -103 -22.5t-48 -59.5v-512h-390v930h390v-76q83 96 213 96q51 0 79 -16z" />
    <glyph glyph-name="Rcommaaccent" unicode="&#x156;" horiz-adv-x="1198" 
d="M551 360h-92v-360h-391v1257h612q211 0 342 -122t131 -336q0 -131 -56.5 -228t-158.5 -151l260 -420h-436zM381 -506l111 135q-42 19 -69.5 58t-27.5 94q0 72 53.5 119t135.5 47q78 0 133 -48.5t55 -131.5q0 -54 -23 -99.5t-69 -99.5l-62 -74h-237zM459 928v-256h168
q141 0 141 127q0 129 -141 129h-168z" />
    <glyph glyph-name="rcommaaccent" unicode="&#x157;" horiz-adv-x="778" 
d="M47 -506l111 135q-42 19 -69.5 58t-27.5 94q0 72 53.5 119t135.5 47q78 0 133 -48.5t55 -131.5q0 -54 -23 -99.5t-69 -99.5l-61 -74h-238zM745 934v-369q-65 29 -141 29q-64 0 -103 -22.5t-48 -59.5v-512h-390v930h390v-76q83 96 213 96q51 0 79 -16z" />
    <glyph glyph-name="Rcaron" unicode="&#x158;" horiz-adv-x="1198" 
d="M551 360h-92v-360h-391v1257h612q211 0 342 -122t131 -336q0 -131 -56.5 -228t-158.5 -151l260 -420h-436zM449 1350l-240 280h305l74 -76l74 76h305l-240 -280h-278zM459 928v-256h168q141 0 141 127q0 129 -141 129h-168z" />
    <glyph glyph-name="rcaron" unicode="&#x159;" horiz-adv-x="778" 
d="M754 1331l-199 -321h-279l-198 321h276l62 -84l61 84h277zM745 934v-369q-65 29 -141 29q-64 0 -103 -22.5t-48 -59.5v-512h-390v930h390v-76q83 96 213 96q51 0 79 -16z" />
    <glyph glyph-name="Sacute" unicode="&#x15a;" horiz-adv-x="1142" 
d="M16 387h414q28 -94 156 -94q56 0 91.5 21t35.5 61q0 30 -20 43t-62 22l-258 54q-332 67 -332 356q0 195 146 311.5t370 116.5q236 0 376 -115t165 -293h-387q-34 97 -152 97q-54 0 -85.5 -18.5t-31.5 -53.5q0 -50 70 -64l262 -61q338 -80 338 -371q0 -131 -70.5 -227.5
t-186 -144t-259.5 -47.5q-241 0 -394.5 107.5t-185.5 299.5zM760 1358h-381l174 280h381z" />
    <glyph glyph-name="sacute" unicode="&#x15b;" horiz-adv-x="940" 
d="M639 1010h-360l174 321h360zM16 297h373q6 -27 28 -42t52 -15q57 0 57 36q0 12 -8 19t-16 9.5t-27 6.5l-174 33q-133 26 -201.5 92t-68.5 187q0 105 58.5 180.5t152 111t209.5 35.5q200 0 314.5 -85t133.5 -234h-352q-8 59 -80 59q-24 0 -38.5 -10t-14.5 -25
q0 -16 10 -22.5t35 -11.5l178 -41q272 -64 272 -287q0 -148 -122.5 -230.5t-309.5 -82.5q-192 0 -316 81.5t-145 235.5z" />
    <glyph glyph-name="Scircumflex" unicode="&#x15c;" horiz-adv-x="1142" 
d="M16 387h414q28 -94 156 -94q56 0 91.5 21t35.5 61q0 30 -20 43t-62 22l-258 54q-332 67 -332 356q0 195 146 311.5t370 116.5q236 0 376 -115t165 -293h-387q-34 97 -152 97q-54 0 -85.5 -18.5t-31.5 -53.5q0 -50 70 -64l262 -61q338 -80 338 -371q0 -131 -70.5 -227.5
t-186 -144t-259.5 -47.5q-241 0 -394.5 107.5t-185.5 299.5zM719 1638l239 -280h-305l-73 76l-74 -76h-305l239 280h279z" />
    <glyph glyph-name="scircumflex" unicode="&#x15d;" horiz-adv-x="940" 
d="M606 1331l199 -321h-277l-61 84l-61 -84h-277l199 321h278zM16 297h373q6 -27 28 -42t52 -15q57 0 57 36q0 12 -8 19t-16 9.5t-27 6.5l-174 33q-133 26 -201.5 92t-68.5 187q0 105 58.5 180.5t152 111t209.5 35.5q200 0 314.5 -85t133.5 -234h-352q-8 59 -80 59
q-24 0 -38.5 -10t-14.5 -25q0 -16 10 -22.5t35 -11.5l178 -41q272 -64 272 -287q0 -148 -122.5 -230.5t-309.5 -82.5q-192 0 -316 81.5t-145 235.5z" />
    <glyph glyph-name="Scedilla" unicode="&#x15e;" horiz-adv-x="1142" 
d="M16 387h414q28 -94 156 -94q56 0 91.5 21t35.5 61q0 30 -20 43t-62 22l-258 54q-332 67 -332 356q0 195 146 311.5t370 116.5q236 0 376 -115t165 -293h-387q-34 97 -152 97q-54 0 -85.5 -18.5t-31.5 -53.5q0 -50 70 -64l262 -61q338 -80 338 -371q0 -131 -70.5 -227.5
t-186 -144t-259.5 -47.5q-241 0 -394.5 107.5t-185.5 299.5zM600 -358h-319l137 292h319z" />
    <glyph glyph-name="scedilla" unicode="&#x15f;" horiz-adv-x="940" 
d="M16 297h373q6 -27 28 -42t52 -15q57 0 57 36q0 12 -8 19t-16 9.5t-27 6.5l-174 33q-133 26 -201.5 92t-68.5 187q0 105 58.5 180.5t152 111t209.5 35.5q200 0 314.5 -85t133.5 -234h-352q-8 59 -80 59q-24 0 -38.5 -10t-14.5 -25q0 -16 10 -22.5t35 -11.5l178 -41
q272 -64 272 -287q0 -148 -122.5 -230.5t-309.5 -82.5q-192 0 -316 81.5t-145 235.5zM481 -358h-319l137 292h319z" />
    <glyph glyph-name="Scaron" unicode="&#x160;" horiz-adv-x="1142" 
d="M434 1350l-239 280h305l73 -76l74 76h305l-239 -280h-279zM16 387h414q28 -94 156 -94q56 0 91.5 21t35.5 61q0 30 -20 43t-62 22l-258 54q-332 67 -332 356q0 195 146 311.5t370 116.5q236 0 376 -115t165 -293h-387q-34 97 -152 97q-54 0 -85.5 -18.5t-31.5 -53.5
q0 -50 70 -64l262 -61q338 -80 338 -371q0 -131 -70.5 -227.5t-186 -144t-259.5 -47.5q-241 0 -394.5 107.5t-185.5 299.5z" />
    <glyph glyph-name="scaron" unicode="&#x161;" horiz-adv-x="940" 
d="M805 1331l-199 -321h-278l-199 321h277l61 -84l61 84h277zM16 297h373q6 -27 28 -42t52 -15q57 0 57 36q0 12 -8 19t-16 9.5t-27 6.5l-174 33q-133 26 -201.5 92t-68.5 187q0 105 58.5 180.5t152 111t209.5 35.5q200 0 314.5 -85t133.5 -234h-352q-8 59 -80 59
q-24 0 -38.5 -10t-14.5 -25q0 -16 10 -22.5t35 -11.5l178 -41q272 -64 272 -287q0 -148 -122.5 -230.5t-309.5 -82.5q-192 0 -316 81.5t-145 235.5z" />
    <glyph glyph-name="Tcedilla" unicode="&#x162;" horiz-adv-x="1196" 
d="M391 -506l111 135q-42 19 -69 58t-27 94q0 72 53 119t135 47q78 0 133 -48.5t55 -131.5q0 -54 -23 -99.5t-69 -99.5l-61 -74h-238zM29 920v337h1138v-337h-370v-920h-398v920h-370z" />
    <glyph glyph-name="tcedilla" unicode="&#x163;" horiz-adv-x="759" 
d="M137 358v273h-125v299h125v260h387v-260h187v-299h-187v-199q0 -53 22.5 -77.5t69.5 -24.5q52 0 95 12v-334q-67 -24 -191 -24q-192 0 -287.5 90t-95.5 284zM227 -506l111 135q-42 19 -69 58t-27 94q0 72 53 119t135 47q78 0 133 -48.5t55 -131.5q0 -54 -23 -99.5
t-69 -99.5l-61 -74h-238z" />
    <glyph glyph-name="Tcaron" unicode="&#x164;" horiz-adv-x="1196" 
d="M459 1350l-240 280h305l74 -76l74 76h305l-240 -280h-278zM29 920v337h1138v-337h-370v-920h-398v920h-370z" />
    <glyph glyph-name="tcaron" unicode="&#x165;" horiz-adv-x="759" 
d="M137 358v273h-125v299h125v260h387v-260h187v-299h-187v-199q0 -53 22.5 -77.5t69.5 -24.5q52 0 95 12v-334q-67 -24 -191 -24q-192 0 -287.5 90t-95.5 284zM868 989h-299l99 342h303z" />
    <glyph glyph-name="Tbar" unicode="&#x166;" horiz-adv-x="1196" 
d="M29 920v337h1138v-337h-370v-175h164v-317h-164v-428h-398v428h-163v317h163v175h-370z" />
    <glyph glyph-name="tbar" unicode="&#x167;" horiz-adv-x="759" 
d="M51 406v217h86v69h-125v238h125v260h387v-260h187v-238h-187v-69h109v-217h-109q11 -76 92 -76q52 0 95 12v-334q-67 -24 -191 -24q-192 0 -287.5 90t-95.5 284v48h-86z" />
    <glyph glyph-name="Utilde" unicode="&#x168;" horiz-adv-x="1261" 
d="M764 1671h205q0 -330 -187 -330q-51 0 -129.5 28t-109.5 28q-20 0 -32.5 -13.5t-12.5 -33.5h-205q0 329 186 329q51 0 130 -27.5t110 -27.5q20 0 32.5 13.5t12.5 33.5zM631 -20q-266 0 -420 142t-154 398v737h396v-702q0 -104 48.5 -162.5t129.5 -58.5t129.5 58.5
t48.5 162.5v702h395v-737q0 -257 -153 -398.5t-420 -141.5z" />
    <glyph glyph-name="utilde" unicode="&#x169;" horiz-adv-x="1087" 
d="M1024 930v-930h-387v76q-39 -44 -105 -70t-143 -26q-151 0 -239.5 91t-88.5 246v613h390v-514q0 -44 22 -72.5t66 -28.5q33 0 60 21t36 55v539h389zM655 1331h205q0 -330 -186 -330q-52 0 -110 28t-89 28q-20 0 -32.5 -13.5t-12.5 -33.5h-205q0 329 187 329
q52 0 110 -27.5t88 -27.5q20 0 32.5 13.5t12.5 33.5z" />
    <glyph glyph-name="Umacron" unicode="&#x16a;" horiz-adv-x="1261" 
d="M336 1358v256h592v-256h-592zM631 -20q-266 0 -420 142t-154 398v737h396v-702q0 -104 48.5 -162.5t129.5 -58.5t129.5 58.5t48.5 162.5v702h395v-737q0 -257 -153 -398.5t-420 -141.5z" />
    <glyph glyph-name="umacron" unicode="&#x16b;" horiz-adv-x="1087" 
d="M1024 930v-930h-387v76q-39 -44 -105 -70t-143 -26q-151 0 -239.5 91t-88.5 246v613h390v-514q0 -44 22 -72.5t66 -28.5q33 0 60 21t36 55v539h389zM268 1010v256h551v-256h-551z" />
    <glyph glyph-name="Ubreve" unicode="&#x16c;" horiz-adv-x="1261" 
d="M631 1337q-141 0 -228.5 84.5t-87.5 241.5h265q0 -76 51 -76q53 0 53 76h262q0 -157 -87 -241.5t-228 -84.5zM631 -20q-266 0 -420 142t-154 398v737h396v-702q0 -104 48.5 -162.5t129.5 -58.5t129.5 58.5t48.5 162.5v702h395v-737q0 -257 -153 -398.5t-420 -141.5z" />
    <glyph glyph-name="ubreve" unicode="&#x16d;" horiz-adv-x="1087" 
d="M1024 930v-930h-387v76q-39 -44 -105 -70t-143 -26q-151 0 -239.5 91t-88.5 246v613h390v-514q0 -44 22 -72.5t66 -28.5q33 0 60 21t36 55v539h389zM543 991q-141 0 -228.5 84.5t-87.5 241.5h265q0 -76 51 -76q53 0 53 76h262q0 -157 -87 -241.5t-228 -84.5z" />
    <glyph glyph-name="Uring" unicode="&#x16e;" horiz-adv-x="1261" 
d="M631 -20q-266 0 -420 142t-154 398v737h396v-702q0 -104 48.5 -162.5t129.5 -58.5t129.5 58.5t48.5 162.5v702h395v-737q0 -257 -153 -398.5t-420 -141.5zM870 1538q0 -97 -69 -164t-170 -67t-170.5 67t-69.5 164t69.5 165.5t170.5 68.5t170 -68.5t69 -165.5zM698 1538
q0 29 -18.5 48.5t-48.5 19.5q-29 0 -47.5 -20t-18.5 -48q0 -27 18.5 -46t47.5 -19q30 0 48.5 19t18.5 46z" />
    <glyph glyph-name="uring" unicode="&#x16f;" horiz-adv-x="1087" 
d="M782 1219q0 -97 -69 -164.5t-170 -67.5t-170.5 67.5t-69.5 164.5t69.5 165t170.5 68t170 -68t69 -165zM610 1219q0 28 -18.5 47.5t-48.5 19.5q-29 0 -47.5 -19.5t-18.5 -47.5q0 -27 18.5 -46.5t47.5 -19.5q30 0 48.5 19.5t18.5 46.5zM1024 930v-930h-387v76
q-39 -44 -105 -70t-143 -26q-151 0 -239.5 91t-88.5 246v613h390v-514q0 -44 22 -72.5t66 -28.5q33 0 60 21t36 55v539h389z" />
    <glyph glyph-name="Uhungarumlaut" unicode="&#x170;" horiz-adv-x="1261" 
d="M631 -20q-266 0 -420 142t-154 398v737h396v-702q0 -104 48.5 -162.5t129.5 -58.5t129.5 58.5t48.5 162.5v702h395v-737q0 -257 -153 -398.5t-420 -141.5zM596 1358h-320l175 280h319zM977 1358h-320l174 280h320z" />
    <glyph glyph-name="uhungarumlaut" unicode="&#x171;" horiz-adv-x="1087" 
d="M1024 930v-930h-387v76q-39 -44 -105 -70t-143 -26q-151 0 -239.5 91t-88.5 246v613h390v-514q0 -44 22 -72.5t66 -28.5q33 0 60 21t36 55v539h389zM508 1010h-299l174 321h299zM868 1010h-299l174 321h299z" />
    <glyph glyph-name="Uogonek" unicode="&#x172;" horiz-adv-x="1261" 
d="M631 -20q-266 0 -420 142t-154 398v737h396v-702q0 -104 48.5 -162.5t129.5 -58.5t129.5 58.5t48.5 162.5v702h395v-737q0 -310 -241 -463q-89 -57 -134 -107.5t-45 -76.5q0 -33 39 -33q21 0 70 27v-205q-68 -35 -141 -35q-89 0 -149 43t-60 127q0 86 94 183h-6z" />
    <glyph glyph-name="uogonek" unicode="&#x173;" horiz-adv-x="1087" 
d="M1024 930v-930q-13 -12 -27 -26t-22.5 -22t-18 -17t-14.5 -14.5t-10.5 -11.5t-8 -10t-5 -9t-3 -8.5t-0.5 -8.5q0 -33 39 -33h7.5t7 1t6 1.5t7.5 2.5t7 3t7.5 4t7.5 4t9.5 5t10.5 6v-205q-68 -35 -141 -35q-89 0 -149 43t-60 127q0 53 29 100t85 103h-151v76
q-39 -44 -105 -70t-143 -26q-151 0 -239.5 91t-88.5 246v613h390v-514q0 -44 22 -72.5t66 -28.5q33 0 60 21t36 55v539h389z" />
    <glyph glyph-name="Wcircumflex" unicode="&#x174;" horiz-adv-x="1732" 
d="M723 1257h295l166 -630l145 630h404l-336 -1257h-361l-170 643l-172 -643h-360l-334 1257h410l147 -630zM1006 1638l239 -280h-305l-74 76l-73 -76h-306l240 280h279z" />
    <glyph glyph-name="wcircumflex" unicode="&#x175;" horiz-adv-x="1484" 
d="M881 1331l198 -321h-276l-62 84l-61 -84h-277l199 321h279zM858 930l125 -416l129 416h373l-318 -930h-311l-115 371l-112 -371h-312l-317 930h387l129 -416l125 416h217z" />
    <glyph glyph-name="Ycircumflex" unicode="&#x176;" horiz-adv-x="1294" 
d="M655 809l226 448h413l-450 -843v-414h-400v414l-444 843h430zM786 1638l240 -280h-305l-74 76l-74 -76h-305l240 280h278z" />
    <glyph glyph-name="ycircumflex" unicode="&#x177;" horiz-adv-x="1060" 
d="M588 -313h-385l139 362l-342 881h401l142 -441l135 441h383zM686 1331l199 -321h-277l-61 84l-62 -84h-276l199 321h278z" />
    <glyph glyph-name="Ydieresis" unicode="&#x178;" horiz-adv-x="1294" 
d="M655 809l226 448h413l-450 -843v-414h-400v414l-444 843h430zM260 1509q0 77 54 132t130 55t131.5 -55t55.5 -132q0 -76 -55 -130t-132 -54q-76 0 -130 53.5t-54 130.5zM664 1509q0 77 54 132t130 55t131 -55t55 -132q0 -76 -54.5 -130t-131.5 -54q-76 0 -130 53.5
t-54 130.5z" />
    <glyph glyph-name="Zacute" unicode="&#x179;" horiz-adv-x="1163" 
d="M1108 340v-340h-1053v299l539 621h-533v337h1041v-296l-527 -621h533zM784 1358h-381l175 280h380z" />
    <glyph glyph-name="zacute" unicode="&#x17a;" horiz-adv-x="942" 
d="M668 1010h-361l174 321h361zM893 299v-299h-844v258l371 373h-365v299h834v-258l-346 -373h350z" />
    <glyph glyph-name="Zdotaccent" unicode="&#x17b;" horiz-adv-x="1163" 
d="M813 1538q0 -92 -62 -146.5t-153 -54.5t-153 54.5t-62 146.5t62 146.5t153 54.5t153 -54.5t62 -146.5zM1108 340v-340h-1053v299l539 621h-533v337h1041v-296l-527 -621h533z" />
    <glyph glyph-name="zdotaccent" unicode="&#x17c;" horiz-adv-x="942" 
d="M893 299v-299h-844v258l371 373h-365v299h834v-258l-346 -373h350zM711 1188q0 -92 -62 -146.5t-153 -54.5t-153 54.5t-62 146.5t62 146.5t153 54.5t153 -54.5t62 -146.5z" />
    <glyph glyph-name="Zcaron" unicode="&#x17d;" horiz-adv-x="1163" 
d="M459 1350l-240 280h305l74 -76l74 76h305l-240 -280h-278zM1108 340v-340h-1053v299l539 621h-533v337h1041v-296l-527 -621h533z" />
    <glyph glyph-name="zcaron" unicode="&#x17e;" horiz-adv-x="942" 
d="M834 1331l-199 -321h-279l-198 321h276l62 -84l61 84h277zM893 299v-299h-844v258l371 373h-365v299h834v-258l-346 -373h350z" />
    <glyph glyph-name="florin" unicode="&#x192;" horiz-adv-x="856" 
d="M70 440v295h155l27 150q34 197 133 295t270 98q87 0 160 -25v-309q-27 12 -63 12q-88 0 -103 -92l-22 -129h145v-295h-197l-63 -360q-16 -95 -43 -163.5t-72 -122t-114 -80.5t-164 -27q-100 0 -170 24v264q27 -12 63 -12q79 0 94 92l68 385h-104z" />
    <glyph glyph-name="Aringacute" unicode="&#x1fa;" horiz-adv-x="1363" 
d="M475 1257h414l475 -1257h-401l-66 182h-442l-66 -182h-389zM909 1477q0 -77 -67 -132t-166 -55t-166.5 55t-67.5 132q0 78 67.5 133t166.5 55t166 -54.5t67 -133.5zM870 1698h-381l142 227h381zM676 793l-105 -289h209zM743 1477q0 24 -18.5 40.5t-48.5 16.5t-49 -16.5
t-19 -40.5q0 -23 19 -39.5t49 -16.5t48.5 16.5t18.5 39.5z" />
    <glyph glyph-name="aringacute" unicode="&#x1fb;" horiz-adv-x="1001" 
d="M748 1169q0 -77 -67.5 -131.5t-166.5 -54.5t-166 54.5t-67 131.5q0 79 67 134t166 55t166.5 -55t67.5 -134zM582 1169q0 24 -19 41t-49 17t-49 -17t-19 -41q0 -22 19 -38.5t49 -16.5t49 16.5t19 38.5zM709 1391h-381l141 227h381zM954 0h-376v45q-24 -24 -87.5 -42.5
t-132.5 -18.5q-142 0 -237.5 76.5t-95.5 220.5q0 133 100.5 212.5t253.5 79.5q55 0 113 -14.5t86 -34.5v51q0 33 -19 56.5t-59 23.5q-62 0 -80 -49h-365q20 149 143 247.5t316 98.5q210 0 325 -105.5t115 -297.5v-549zM578 268v41q-30 45 -107 45q-37 0 -63.5 -16.5
t-26.5 -48.5t26.5 -49t63.5 -17q77 0 107 45z" />
    <glyph glyph-name="AEacute" unicode="&#x1fc;" horiz-adv-x="1878" 
d="M692 1257h1131v-337h-514v-119h467v-328h-467v-133h514v-340h-905v182h-402l-96 -182h-420zM1434 1358h-381l174 280h381zM918 932l-230 -428h230v428z" />
    <glyph glyph-name="aeacute" unicode="&#x1fd;" horiz-adv-x="1499" 
d="M932 1010h-361l174 321h361zM467 240q68 0 98 45v94h-98q-39 0 -64.5 -20.5t-25.5 -53.5q0 -32 26.5 -48.5t63.5 -16.5zM1108 330h367q-31 -165 -156.5 -257.5t-312.5 -92.5q-162 0 -308 102q-140 -102 -336 -102q-140 0 -239.5 77t-99.5 209q0 141 115 217t290 76h137
v23q0 35 -22 58.5t-66 23.5q-34 0 -57 -16t-29 -42h-338q20 151 134 247.5t298 96.5q143 0 265 -82q122 82 264 82q212 0 337.5 -130t125.5 -341v-100h-582q10 -58 38 -81.5t81 -23.5q71 0 94 56zM1008 655q-79 0 -105 -96h201q-6 43 -31.5 69.5t-64.5 26.5z" />
    <glyph glyph-name="Oslashacute" unicode="&#x1fe;" horiz-adv-x="1341" 
d="M37 84l129 133q-129 167 -129 412q0 284 176 466.5t457 182.5q231 0 397 -131l127 131l111 -104l-129 -134q129 -175 129 -411q0 -186 -79.5 -334t-224.5 -231.5t-331 -83.5q-234 0 -398 129l-125 -129zM856 1358h-381l174 280h381zM436 629q0 -67 15 -119l358 371
q-57 51 -139 51q-105 0 -169.5 -81.5t-64.5 -221.5zM905 629q0 55 -14 116l-361 -370q55 -49 140 -49q105 0 170 82t65 221z" />
    <glyph glyph-name="oslashacute" unicode="&#x1ff;" horiz-adv-x="1052" 
d="M53 55l86 90q-106 128 -106 320q0 217 136.5 351t356.5 134q175 0 301 -90l86 90l86 -76l-88 -90q109 -131 109 -319q0 -217 -136.5 -351t-357.5 -134q-173 0 -301 88l-86 -88zM698 1010h-360l174 321h360zM647 465q0 27 -2 39l-184 -191q26 -26 65 -26q53 0 87 51
t34 127zM408 465q0 -27 2 -39l182 190q-30 27 -66 27q-52 0 -85 -51t-33 -127z" />
    <glyph glyph-name="Scommaaccent" unicode="&#x218;" horiz-adv-x="1142" 
d="M367 -506l110 135q-42 19 -69 58t-27 94q0 72 53 119t135 47q78 0 133.5 -48.5t55.5 -131.5q0 -54 -23 -99.5t-69 -99.5l-62 -74h-237zM16 387h414q28 -94 156 -94q56 0 91.5 21t35.5 61q0 30 -20 43t-62 22l-258 54q-332 67 -332 356q0 195 146 311.5t370 116.5
q236 0 376 -115t165 -293h-387q-34 97 -152 97q-54 0 -85.5 -18.5t-31.5 -53.5q0 -50 70 -64l262 -61q338 -80 338 -371q0 -131 -70.5 -227.5t-186 -144t-259.5 -47.5q-241 0 -394.5 107.5t-185.5 299.5z" />
    <glyph glyph-name="scommaaccent" unicode="&#x219;" horiz-adv-x="940" 
d="M260 -506l111 135q-42 19 -69.5 58t-27.5 94q0 72 53.5 119t135.5 47q78 0 133 -48.5t55 -131.5q0 -54 -23 -99.5t-69 -99.5l-61 -74h-238zM16 297h373q6 -27 28 -42t52 -15q57 0 57 36q0 12 -8 19t-16 9.5t-27 6.5l-174 33q-133 26 -201.5 92t-68.5 187
q0 105 58.5 180.5t152 111t209.5 35.5q200 0 314.5 -85t133.5 -234h-352q-8 59 -80 59q-24 0 -38.5 -10t-14.5 -25q0 -16 10 -22.5t35 -11.5l178 -41q272 -64 272 -287q0 -148 -122.5 -230.5t-309.5 -82.5q-192 0 -316 81.5t-145 235.5z" />
    <glyph glyph-name="uni0237" unicode="&#x237;" horiz-adv-x="516" 
d="M453 930v-848q0 -198 -98.5 -307t-284.5 -109q-78 0 -138 17v284q24 -4 39 -4q47 0 69.5 19.5t22.5 70.5v877h390z" />
    <glyph glyph-name="circumflex" unicode="&#x2c6;" 
d="M651 1331l199 -321h-277l-61 84l-61 -84h-277l199 321h278z" />
    <glyph glyph-name="caron" unicode="&#x2c7;" 
d="M850 1331l-199 -321h-278l-199 321h277l61 -84l61 84h277z" />
    <glyph glyph-name="breve" unicode="&#x2d8;" 
d="M512 991q-141 0 -228 84.5t-87 241.5h264q0 -76 51 -76q53 0 53 76h262q0 -157 -87 -241.5t-228 -84.5z" />
    <glyph glyph-name="dotaccent" unicode="&#x2d9;" 
d="M727 1188q0 -92 -62 -146.5t-153 -54.5t-153 54.5t-62 146.5t62 146.5t153 54.5t153 -54.5t62 -146.5z" />
    <glyph glyph-name="ring" unicode="&#x2da;" 
d="M752 1219q0 -97 -69.5 -164.5t-170.5 -67.5t-170.5 67.5t-69.5 164.5t69.5 165t170.5 68t170.5 -68t69.5 -165zM580 1219q0 28 -19 47.5t-49 19.5q-29 0 -47.5 -19.5t-18.5 -47.5q0 -27 18.5 -46.5t47.5 -19.5q30 0 49 19.5t19 46.5z" />
    <glyph glyph-name="ogonek" unicode="&#x2db;" 
d="M463 20h227q-18 -19 -37.5 -38.5t-30 -30.5t-22 -22.5t-16.5 -18t-9.5 -13.5t-6 -12.5t-1.5 -11.5q0 -33 39 -33h7.5t7 1t6 1.5t7.5 2.5t7 3t7.5 4t7.5 4t9.5 5t10.5 6v-205q-68 -35 -141 -35q-89 0 -149 43t-60 127q0 58 34 108t103 115z" />
    <glyph glyph-name="tilde" unicode="&#x2dc;" 
d="M625 1331h204q0 -330 -186 -330q-52 0 -110.5 28t-88.5 28q-20 0 -32.5 -13.5t-12.5 -33.5h-204q0 329 186 329q51 0 110 -27.5t89 -27.5q20 0 32.5 13.5t12.5 33.5z" />
    <glyph glyph-name="hungarumlaut" unicode="&#x2dd;" 
d="M393 1010h-299l174 321h299zM754 1010h-299l174 321h299z" />
    <glyph glyph-name="Wgrave" unicode="&#x1e80;" horiz-adv-x="1732" 
d="M1071 1358h-381l-174 280h381zM723 1257h295l166 -630l145 630h404l-336 -1257h-361l-170 643l-172 -643h-360l-334 1257h410l147 -630z" />
    <glyph glyph-name="wgrave" unicode="&#x1e81;" horiz-adv-x="1484" 
d="M858 930l125 -416l129 416h373l-318 -930h-311l-115 371l-112 -371h-312l-317 930h387l129 -416l125 416h217zM928 1010h-361l-174 321h361z" />
    <glyph glyph-name="Wacute" unicode="&#x1e82;" horiz-adv-x="1732" 
d="M1053 1358h-381l174 280h381zM723 1257h295l166 -630l145 630h404l-336 -1257h-361l-170 643l-172 -643h-360l-334 1257h410l147 -630z" />
    <glyph glyph-name="wacute" unicode="&#x1e83;" horiz-adv-x="1484" 
d="M913 1010h-360l174 321h360zM858 930l125 -416l129 416h373l-318 -930h-311l-115 371l-112 -371h-312l-317 930h387l129 -416l125 416h217z" />
    <glyph glyph-name="Wdieresis" unicode="&#x1e84;" horiz-adv-x="1732" 
d="M479 1509q0 77 54.5 132t130.5 55t131 -55t55 -132q0 -76 -54.5 -130t-131.5 -54t-131 54t-54 130zM883 1509q0 77 54 132t130 55t131 -55t55 -132q0 -76 -54.5 -130t-131.5 -54t-130.5 53.5t-53.5 130.5zM723 1257h295l166 -630l145 630h404l-336 -1257h-361l-170 643
l-172 -643h-360l-334 1257h410l147 -630z" />
    <glyph glyph-name="wdieresis" unicode="&#x1e85;" horiz-adv-x="1484" 
d="M369 1155q0 74 52.5 127t125.5 53t126.5 -53.5t53.5 -126.5t-53 -125.5t-127 -52.5q-73 0 -125.5 52.5t-52.5 125.5zM758 1155q0 74 52.5 127t125.5 53q74 0 127 -53.5t53 -126.5t-53 -125.5t-127 -52.5t-126 52.5t-52 125.5zM858 930l125 -416l129 416h373l-318 -930
h-311l-115 371l-112 -371h-312l-317 930h387l129 -416l125 416h217z" />
    <glyph glyph-name="Ygrave" unicode="&#x1ef2;" horiz-adv-x="1294" 
d="M655 809l226 448h413l-450 -843v-414h-400v414l-444 843h430zM852 1358h-381l-174 280h381z" />
    <glyph glyph-name="ygrave" unicode="&#x1ef3;" horiz-adv-x="1060" 
d="M588 -313h-385l139 362l-342 881h401l142 -441l135 441h383zM733 1010h-360l-174 321h360z" />
    <glyph glyph-name="endash" unicode="&#x2013;" horiz-adv-x="944" 
d="M68 410v249h809v-249h-809z" />
    <glyph glyph-name="emdash" unicode="&#x2014;" horiz-adv-x="1703" 
d="M68 410v249h1568v-249h-1568z" />
    <glyph glyph-name="quoteleft" unicode="&#x2018;" horiz-adv-x="489" 
d="M465 1257l-156 -239q63 -13 107.5 -63.5t44.5 -125.5q0 -89 -62.5 -146.5t-156.5 -57.5q-91 0 -154 60.5t-63 166.5q0 107 88 240l108 165h244z" />
    <glyph glyph-name="quoteright" unicode="&#x2019;" horiz-adv-x="489" 
d="M25 645l155 240q-63 13 -107 63t-44 125q0 89 62.5 147t156.5 58q91 0 154 -60.5t63 -166.5q0 -107 -88 -240l-109 -166h-243z" />
    <glyph glyph-name="quotesinglbase" unicode="&#x201a;" horiz-adv-x="489" 
d="M25 -238l155 240q-63 13 -107 63t-44 125q0 89 62.5 147t156.5 58q91 0 154 -60.5t63 -166.5q0 -107 -88 -240l-109 -166h-243z" />
    <glyph glyph-name="quotedblleft" unicode="&#x201c;" horiz-adv-x="962" 
d="M465 1257l-156 -239q63 -13 107.5 -63.5t44.5 -125.5q0 -89 -62.5 -146.5t-156.5 -57.5q-91 0 -154 60.5t-63 166.5q0 107 88 240l108 165h244zM938 1257l-156 -239q63 -13 107.5 -63.5t44.5 -125.5q0 -89 -62.5 -146.5t-156.5 -57.5q-91 0 -154 60.5t-63 166.5
q0 107 88 240l108 165h244z" />
    <glyph glyph-name="quotedblright" unicode="&#x201d;" horiz-adv-x="962" 
d="M25 645l155 240q-63 13 -107 63t-44 125q0 89 62.5 147t156.5 58q91 0 154 -60.5t63 -166.5q0 -107 -88 -240l-109 -166h-243zM498 645l155 240q-63 13 -107 63t-44 125q0 89 62.5 147t156.5 58q91 0 154 -60.5t63 -166.5q0 -107 -88 -240l-109 -166h-243z" />
    <glyph glyph-name="quotedblbase" unicode="&#x201e;" horiz-adv-x="962" 
d="M25 -238l155 240q-63 13 -107 63t-44 125q0 89 62.5 147t156.5 58q91 0 154 -60.5t63 -166.5q0 -107 -88 -240l-109 -166h-243zM498 -238l155 240q-63 13 -107 63t-44 125q0 89 62.5 147t156.5 58q91 0 154 -60.5t63 -166.5q0 -107 -88 -240l-109 -166h-243z" />
    <glyph glyph-name="dagger" unicode="&#x2020;" horiz-adv-x="720" 
d="M41 913v230h203v188h233v-188h203v-230h-203v-348h-233v348h-203z" />
    <glyph glyph-name="daggerdbl" unicode="&#x2021;" horiz-adv-x="720" 
d="M41 1008v200h209v123h221v-123h209v-200h-209v-121h209v-199h-209v-123h-221v123h-209v199h209v121h-209z" />
    <glyph glyph-name="bullet" unicode="&#x2022;" horiz-adv-x="815" 
d="M774 535q0 -158 -105.5 -260.5t-258.5 -102.5q-156 0 -262.5 102.5t-106.5 260.5q0 162 106.5 265t262.5 103q154 0 259 -103t105 -265z" />
    <glyph glyph-name="ellipsis" unicode="&#x2026;" horiz-adv-x="1538" 
d="M25 207q0 95 63 158t154 63q93 0 156 -63t63 -158q0 -94 -63.5 -157.5t-155.5 -63.5q-91 0 -154 64t-63 157zM551 207q0 95 63 158t154 63q93 0 156 -63t63 -158q0 -94 -63.5 -157.5t-155.5 -63.5q-91 0 -154 64t-63 157zM1077 207q0 95 63 158t154 63q93 0 156 -63
t63 -158q0 -94 -63.5 -157.5t-155.5 -63.5q-91 0 -154 64t-63 157z" />
    <glyph glyph-name="perthousand" unicode="&#x2030;" horiz-adv-x="2084" 
d="M190 0l838 1257h197l-838 -1257h-197zM41 965q0 130 89.5 221.5t217.5 91.5q131 0 222.5 -91.5t91.5 -221.5q0 -128 -92 -218t-222 -90q-127 0 -217 90t-90 218zM1374 293q0 -130 -89.5 -221.5t-217.5 -91.5q-131 0 -222 91t-91 222q0 128 91.5 217.5t221.5 89.5
q127 0 217 -90t90 -217zM1161 293q0 38 -28 66t-66 28q-41 0 -70.5 -28t-29.5 -66q0 -41 29.5 -70.5t70.5 -29.5q38 0 66 29.5t28 70.5zM2044 293q0 -130 -89.5 -221.5t-217.5 -91.5q-131 0 -222.5 91.5t-91.5 221.5q0 128 92 217.5t222 89.5q127 0 217 -90t90 -217z
M1831 293q0 38 -28 66t-66 28q-41 0 -71 -28t-30 -66q0 -41 30 -70.5t71 -29.5q38 0 66 29.5t28 70.5zM254 965q0 -38 28 -66.5t66 -28.5q41 0 71 28.5t30 66.5q0 41 -30 70.5t-71 29.5q-38 0 -66 -29.5t-28 -70.5z" />
    <glyph glyph-name="guilsinglleft" unicode="&#x2039;" horiz-adv-x="618" 
d="M567 111h-327l-189 344l189 344h327l-188 -344z" />
    <glyph glyph-name="guilsinglright" unicode="&#x203a;" horiz-adv-x="618" 
d="M379 111h-328l189 344l-189 344h328l188 -344z" />
    <glyph glyph-name="fraction" unicode="&#x2044;" horiz-adv-x="442" 
d="M688 1257l-756 -1257h-178l756 1257h178z" />
    <glyph glyph-name="Euro" unicode="&#x20ac;" horiz-adv-x="1189" 
d="M41 668v157h104q48 207 187.5 330t335.5 123q105 0 191 -35t144.5 -98t95 -144.5t50.5 -179.5h-344q-12 50 -45.5 82.5t-91.5 32.5q-100 0 -144 -111h211l-30 -157h-207v-39v-29h190l-31 -158h-135q41 -120 146 -120q58 0 91.5 32t45.5 82h344q-19 -132 -76 -232.5
t-161 -162t-244 -61.5q-198 0 -338.5 125.5t-186.5 336.5h-102v158h84v29v39h-84z" />
    <glyph glyph-name="uni2117" unicode="&#x2117;" horiz-adv-x="1441" 
d="M1370 629q0 -184 -88 -334t-236 -232.5t-325 -82.5t-325 82.5t-236 232.5t-88 334t88 334t236 232.5t325 82.5t325 -82.5t236 -232.5t88 -334zM1274 629q0 157 -75 285t-201.5 199t-276.5 71t-276.5 -71t-201.5 -199t-75 -285t75 -285t201.5 -199t276.5 -71t276.5 71
t201.5 199t75 285zM803 459h-121v-205h-236v756h357q129 0 206.5 -72.5t77.5 -202.5q0 -131 -77.5 -203.5t-206.5 -72.5zM856 735q0 76 -86 76h-88v-154h88q86 0 86 78z" />
    <glyph glyph-name="trademark" unicode="&#x2122;" horiz-adv-x="1263" 
d="M41 1087v170h496v-170h-156v-350h-186v350h-154zM952 737h-104l-88 279v-279h-160v520h213l88 -278l88 278h213v-520h-162v279z" />
    <glyph glyph-name="uni2153" unicode="&#x2153;" horiz-adv-x="1527" 
d="M1241 1257l-838 -1257h-196l837 1257h197zM1130 285v168h48q65 0 65 51q0 18 -11.5 29.5t-33.5 11.5t-37 -16.5t-18 -39.5h-238q11 108 86.5 182t200.5 74q132 0 207.5 -65.5t75.5 -175.5q0 -37 -20.5 -77.5t-47.5 -59.5q34 -19 54 -55.5t20 -78.5q0 -111 -77.5 -178
t-209.5 -67q-130 0 -208.5 71.5t-84.5 190.5h254q3 -49 47 -49q20 0 31.5 10.5t11.5 28.5q0 45 -57 45h-58zM453 1257v-735h-240v467l-174 -82v242l235 108h179z" />
    <glyph glyph-name="uni2154" unicode="&#x2154;" horiz-adv-x="1671" 
d="M1384 1257l-837 -1257h-197l838 1257h196zM401 1012q0 18 -11 30.5t-32 12.5q-19 0 -32 -13.5t-13 -29.5h-256q11 108 90.5 182t204.5 74q130 0 210.5 -67t80.5 -173q0 -68 -33 -115t-100 -106l-90 -78h217v-207h-574v156l285 252l11 11l10.5 10.5t8.5 9t8 10t6 9t5.5 10
t2.5 10.5t1 12zM1274 289v160h49q68 0 68 55q0 21 -12.5 35t-37.5 14q-27 0 -42.5 -19t-18.5 -45h-231q11 109 86 182.5t200 73.5q132 0 207.5 -65.5t75.5 -175.5q0 -37 -20.5 -77.5t-47.5 -59.5q34 -19 54 -55.5t20 -78.5q0 -111 -77.5 -178t-209.5 -67q-130 0 -208.5 71.5
t-84.5 190.5h246q2 -28 16.5 -45t41.5 -17q21 0 35 15t14 37q0 49 -64 49h-59z" />
    <glyph glyph-name="uni215B" unicode="&#x215b;" horiz-adv-x="1542" 
d="M1241 1257l-838 -1257h-196l837 1257h197zM1176 170q27 0 45 16t18 39q0 24 -18 40t-45 16q-29 0 -48.5 -16.5t-19.5 -39.5t19.5 -39t48.5 -16zM1176 461q27 0 44 15.5t17 39.5q0 22 -17 37.5t-44 15.5q-29 0 -46.5 -15.5t-17.5 -37.5q0 -24 17.5 -39.5t46.5 -15.5z
M1176 -12q-128 0 -213.5 58.5t-85.5 158.5q0 57 28.5 99t75.5 63q-80 48 -80 153t80 165t195 60q114 0 193 -60t79 -165q0 -107 -80 -153q48 -21 76.5 -63t28.5 -99q0 -100 -85 -158.5t-212 -58.5zM453 1257v-735h-240v467l-174 -82v242l235 108h179z" />
    <glyph glyph-name="uni215C" unicode="&#x215c;" horiz-adv-x="1593" 
d="M1227 170q27 0 45 16t18 39q0 24 -18 40t-45 16q-29 0 -48.5 -16.5t-19.5 -39.5t19.5 -39t48.5 -16zM1227 461q27 0 44 15.5t17 39.5q0 22 -17 37.5t-44 15.5q-29 0 -46.5 -15.5t-17.5 -37.5q0 -24 17.5 -39.5t46.5 -15.5zM1227 -12q-128 0 -213.5 58.5t-85.5 158.5
q0 57 28.5 99t75.5 63q-80 48 -80 153t80 165t195 60q114 0 193 -60t79 -165q0 -107 -80 -153q48 -21 76.5 -63t28.5 -99q0 -100 -85 -158.5t-212 -58.5zM1292 1257l-837 -1257h-197l838 1257h196zM266 811v160h49q68 0 68 55q0 21 -12 35t-37 14q-27 0 -43 -18.5t-19 -44.5
h-231q11 108 86.5 182t200.5 74q132 0 207 -66t75 -176q0 -38 -20 -78t-47 -59q33 -19 53 -55t20 -78q0 -111 -77 -178.5t-209 -67.5q-130 0 -208.5 71.5t-84.5 190.5h246q2 -28 16 -44.5t41 -16.5q22 0 35.5 14.5t13.5 36.5q0 49 -63 49h-60z" />
    <glyph glyph-name="uni215D" unicode="&#x215d;" horiz-adv-x="1611" 
d="M1245 170q28 0 46 16t18 39t-18.5 39.5t-45.5 16.5q-29 0 -48 -16t-19 -40q0 -23 19 -39t48 -16zM1245 461q27 0 44.5 15.5t17.5 39.5q0 22 -17.5 37.5t-44.5 15.5q-28 0 -45.5 -15.5t-17.5 -37.5q0 -24 17 -39.5t46 -15.5zM1245 -12q-128 0 -213.5 58.5t-85.5 158.5
q0 57 28.5 99t76.5 63q-80 48 -80 153q0 106 79.5 165.5t194.5 59.5q114 0 193.5 -60t79.5 -165q0 -107 -80 -153q47 -21 75.5 -63t28.5 -99q0 -100 -85 -158.5t-212 -58.5zM1311 1257l-838 -1257h-197l838 1257h197zM334 827q-27 0 -60 -20h-202v450h493v-192h-297v-78
q35 21 101 21q119 0 187.5 -65.5t68.5 -174.5q0 -117 -77 -187.5t-206 -70.5q-137 0 -216.5 63t-86.5 181h240q3 -20 20 -32.5t39 -12.5q26 0 42.5 16.5t16.5 42.5q0 25 -17 42t-46 17z" />
    <glyph glyph-name="uni215E" unicode="&#x215e;" horiz-adv-x="1480" 
d="M1114 170q28 0 46 16t18 39t-18.5 39.5t-45.5 16.5q-29 0 -48 -16t-19 -40q0 -23 19 -39t48 -16zM1114 461q27 0 44.5 15.5t17.5 39.5q0 22 -17.5 37.5t-44.5 15.5q-28 0 -45.5 -15.5t-17.5 -37.5q0 -24 17 -39.5t46 -15.5zM1114 -12q-128 0 -213.5 58.5t-85.5 158.5
q0 57 28.5 99t76.5 63q-80 48 -80 153q0 106 79.5 165.5t194.5 59.5q114 0 193 -60t79 -165q0 -107 -79 -153q47 -21 75.5 -63t28.5 -99q0 -100 -85 -158.5t-212 -58.5zM1180 1257l-838 -1257h-197l838 1257h197zM582 1098l-238 -576h-254l221 529h-272v206h543v-159z" />
    <glyph glyph-name="minus" unicode="&#x2212;" horiz-adv-x="1128" 
d="M78 473v281h973v-281h-973z" />
    <glyph glyph-name="approxequal" unicode="&#x2248;" horiz-adv-x="1169" 
d="M98 637v260q133 86 260 86q83 0 222.5 -42t222.5 -42q137 0 268 88v-262q-138 -86 -268 -86q-83 0 -222.5 42t-222.5 42q-127 0 -260 -86zM98 242v260q131 88 260 88q83 0 222.5 -43t222.5 -43q131 0 268 88v-262q-138 -86 -268 -86q-83 0 -222.5 43t-222.5 43
q-124 0 -260 -88z" />
    <glyph glyph-name="notequal" unicode="&#x2260;" horiz-adv-x="1169" 
d="M98 700v250h578l115 187h225l-115 -187h170v-250h-323l-103 -165h426v-248h-577l-115 -189h-225l114 189h-170v248h322l102 165h-424z" />
    <glyph glyph-name="lessequal" unicode="&#x2264;" horiz-adv-x="892" 
d="M76 600v330l741 244v-293l-475 -115l475 -119v-291zM76 49v268h741v-268h-741z" />
    <glyph glyph-name="greaterequal" unicode="&#x2265;" horiz-adv-x="892" 
d="M817 930v-330l-741 -244v291l475 119l-475 115v293zM817 317v-268h-741v268h741z" />
    <glyph glyph-name="fi" unicode="&#xfb01;" horiz-adv-x="1234" 
d="M1171 930v-930h-389v930h389zM1192 1165q0 -92 -62 -146t-153 -54t-153 54t-62 146t62 146.5t153 54.5t153 -54.5t62 -146.5zM698 1323v-309q-27 12 -63 12q-48 0 -75.5 -23.5t-27.5 -68.5v-4h166v-299h-166v-631h-387v631h-125v299h125v24q0 181 102 287.5t292 106.5
q86 0 159 -25z" />
    <glyph glyph-name="fl" unicode="&#xfb02;" horiz-adv-x="1234" 
d="M1171 1331v-1331h-389v1331h389zM698 1323v-309q-27 12 -63 12q-48 0 -75.5 -23.5t-27.5 -68.5v-4h166v-299h-166v-631h-387v631h-125v299h125v24q0 181 102 287.5t292 106.5q86 0 159 -25z" />
    <glyph glyph-name="i.dot" horiz-adv-x="516" 
d="M453 930v-930h-390v930h390zM473 1188q0 -92 -62 -146.5t-153 -54.5t-153 54.5t-62 146.5t62 146.5t153 54.5t153 -54.5t62 -146.5z" />
    <glyph glyph-name="space_uni0326" 
d="M315 -506l111 135q-42 19 -69 58t-27 94q0 72 53 119t135 47q78 0 133.5 -48.5t55.5 -131.5q0 -54 -23.5 -99t-69.5 -100l-61 -74h-238z" />
    <glyph glyph-name="space_uni0326.alt" 
d="M711 1425l-119 -143q42 -19 69 -58t27 -94q0 -72 -53 -118.5t-135 -46.5q-78 0 -133.5 48.5t-55.5 131.5q0 54 23 98.5t69 99.5l70 82h238z" />
    <glyph glyph-name="space_dotbelowcomb" 
d="M719 -246q0 -89 -59.5 -141.5t-147.5 -52.5t-147.5 52.5t-59.5 141.5q0 88 59.5 140.5t147.5 52.5t147.5 -52.5t59.5 -140.5z" />
    <glyph glyph-name="caron.Slovak" 
d="M598 989h-299l98 342h303z" />
    <glyph glyph-name="cedilla.alt" 
d="M580 -358h-320l137 292h320z" />
    <glyph glyph-name="grave.cap" 
d="M788 1358h-380l-175 280h381z" />
    <glyph glyph-name="acute.cap" 
d="M614 1358h-381l175 280h380z" />
    <glyph glyph-name="circumflex.cap" 
d="M651 1638l240 -280h-305l-74 76l-74 -76h-305l240 280h278z" />
    <glyph glyph-name="caron.cap" 
d="M373 1350l-240 280h305l74 -76l74 76h305l-240 -280h-278z" />
    <glyph glyph-name="tilde.cap" 
d="M645 1671h205q0 -330 -186 -330q-52 0 -131 28t-109 28q-20 0 -32.5 -13.5t-12.5 -33.5h-205q0 329 186 329q52 0 131 -27.5t109 -27.5q20 0 32.5 13.5t12.5 33.5z" />
    <glyph glyph-name="macron.cap" 
d="M215 1358v256h592v-256h-592z" />
    <glyph glyph-name="breve.cap" 
d="M512 1337q-141 0 -228 84.5t-87 241.5h264q0 -76 51 -76q53 0 53 76h262q0 -157 -87 -241.5t-228 -84.5z" />
    <glyph glyph-name="dotaccent.cap" 
d="M727 1538q0 -92 -62 -146.5t-153 -54.5t-153 54.5t-62 146.5t62 146.5t153 54.5t153 -54.5t62 -146.5z" />
    <glyph glyph-name="dieresis.cap" 
d="M125 1509q0 77 54 132t130 55q77 0 132 -55t55 -132q0 -76 -55 -130t-132 -54t-130.5 53.5t-53.5 130.5zM528 1509q0 77 54.5 132t130.5 55t131 -55t55 -132q0 -76 -54.5 -130t-131.5 -54t-131 54t-54 130z" />
    <glyph glyph-name="ring.cap" 
d="M752 1538q0 -97 -69.5 -164t-170.5 -67t-170.5 67t-69.5 164t69.5 165.5t170.5 68.5t170.5 -68.5t69.5 -165.5zM580 1538q0 28 -19 48t-49 20q-29 0 -47.5 -20t-18.5 -48q0 -27 18.5 -46t47.5 -19q30 0 49 19t19 46z" />
    <glyph glyph-name="hungarumlaut.cap" 
d="M393 1358h-319l174 280h319zM774 1358h-319l174 280h319z" />
    <glyph glyph-name="exclamdown.cap" horiz-adv-x="536" 
d="M47 1067q0 87 64 146t157 59t157 -59t64 -146t-64 -146t-157 -59t-157 59t-64 146zM31 0l84 821h307l84 -821h-475z" />
    <glyph glyph-name="questiondown.cap" horiz-adv-x="1013" 
d="M700 1067q0 -88 -64 -146.5t-157 -58.5q-96 0 -160.5 57.5t-64.5 147.5q0 88 65 146.5t160 58.5q93 0 157 -59t64 -146zM41 365q0 54 21.5 108t44 85.5t68.5 87.5t63 79q40 54 43 96h387q-2 -43 -19.5 -83t-68.5 -107q-14 -18 -41.5 -52.5t-38.5 -49t-26 -37.5t-20 -41
t-5 -37q0 -34 20 -55t49 -21q34 0 55 22.5t23 51.5h397q-10 -89 -45 -166t-94.5 -137t-151 -94.5t-204.5 -34.5q-203 0 -330 104t-127 281z" />
    <glyph glyph-name="guilsinglleft.cap" horiz-adv-x="618" 
d="M567 274h-327l-189 344l189 345h327l-188 -345z" />
    <glyph glyph-name="guilsinglright.cap" horiz-adv-x="618" 
d="M379 274h-328l189 344l-189 345h328l188 -345z" />
    <glyph glyph-name="guillemotleft.cap" horiz-adv-x="989" 
d="M547 274h-307l-189 344l189 345h307l-189 -345zM938 274h-307l-189 344l189 345h307l-188 -345z" />
    <glyph glyph-name="guillemotright.cap" horiz-adv-x="989" 
d="M750 274h-308l189 344l-189 345h308l188 -345zM358 274h-307l189 344l-189 345h307l189 -345z" />
    <glyph glyph-name="slash.cap" horiz-adv-x="849" 
d="M10 -131l508 1503h322l-508 -1503h-322z" />
    <glyph glyph-name="backslash.cap" horiz-adv-x="849" 
d="M332 1372l508 -1503h-322l-508 1503h322z" />
    <glyph glyph-name="bar.cap" horiz-adv-x="444" 
d="M68 -131v1503h309v-1503h-309z" />
    <glyph glyph-name="periodcentered.cap" horiz-adv-x="518" 
d="M41 594q0 95 63 158t154 63q93 0 156 -63t63 -158q0 -94 -63.5 -157.5t-155.5 -63.5q-91 0 -154 64t-63 157z" />
    <glyph glyph-name="bullet.cap" horiz-adv-x="815" 
d="M774 596q0 -158 -105.5 -260.5t-258.5 -102.5q-156 0 -262.5 102.5t-106.5 260.5q0 162 106.5 265.5t262.5 103.5q153 0 258.5 -103.5t105.5 -265.5z" />
    <glyph glyph-name="hyphen.cap" horiz-adv-x="628" 
d="M68 438v318h493v-318h-493z" />
    <glyph glyph-name="endash.cap" horiz-adv-x="944" 
d="M68 471v250h809v-250h-809z" />
    <glyph glyph-name="emdash.cap" horiz-adv-x="1703" 
d="M68 471v250h1568v-250h-1568z" />
    <glyph glyph-name="parenleft.cap" horiz-adv-x="702" 
d="M61 621q0 295 160.5 494.5t440.5 256.5v-348q-123 -49 -188.5 -144t-65.5 -259t65.5 -259.5t188.5 -144.5v-348q-279 57 -440 257t-161 495z" />
    <glyph glyph-name="parenright.cap" horiz-adv-x="702" 
d="M641 621q0 -295 -160.5 -495t-439.5 -257v348q123 49 188.5 144.5t65.5 259.5t-65.5 259t-188.5 144v348q279 -57 439.5 -256.5t160.5 -494.5z" />
    <glyph glyph-name="bracketleft.cap" horiz-adv-x="698" 
d="M430 1059v-877h227v-313h-589v1503h589v-313h-227z" />
    <glyph glyph-name="bracketright.cap" horiz-adv-x="698" 
d="M268 182v877h-227v313h590v-1503h-590v313h227z" />
    <glyph glyph-name="braceleft.cap" horiz-adv-x="776" 
d="M528 451v-209q0 -60 60 -60h147v-313h-289q-117 0 -190.5 74t-73.5 192v271q0 59 -59 59h-82v311h82q59 0 59 60v270q0 118 73.5 192t190.5 74h289v-313h-147q-60 0 -60 -60v-208q0 -110 -96 -170q96 -60 96 -170z" />
    <glyph glyph-name="braceright.cap" horiz-adv-x="776" 
d="M248 242v209q0 110 96 170q-96 60 -96 170v208q0 60 -60 60h-147v313h289q117 0 190.5 -74t73.5 -192v-270q0 -60 59 -60h82v-311h-82q-59 0 -59 -59v-271q0 -118 -73.5 -192t-190.5 -74h-289v313h147q60 0 60 60z" />
    <glyph glyph-name="at.cap" horiz-adv-x="1536" 
d="M1200 999l-90 -512q-12 -73 45 -73q89 0 138.5 87t49.5 249q0 141 -70 244t-188.5 154.5t-269.5 51.5q-272 0 -441 -172t-169 -450q0 -123 38 -220.5t98 -158t142.5 -100t164 -55t169.5 -15.5q237 0 459 98v-158q-83 -41 -205 -68.5t-254 -27.5q-123 0 -236 25.5t-214 81
t-175 136.5t-117.5 199.5t-43.5 262.5q0 215 97 392t277.5 282.5t409.5 105.5q150 0 279.5 -46.5t219 -127.5t140.5 -193.5t51 -240.5q0 -244 -122.5 -376t-317.5 -132q-74 0 -139.5 25.5t-106.5 74.5q-68 -92 -209 -92q-133 0 -206.5 89t-73.5 230q0 119 45.5 219.5
t134.5 163t203 62.5q54 0 103 -21t71 -53l10 59h303zM817 559l25 146q-4 23 -26 37t-52 14q-51 0 -87 -43.5t-36 -112.5q0 -43 21.5 -68.5t64.5 -25.5q63 0 90 53z" />
    <glyph glyph-name="Euro.lt" horiz-adv-x="1064" 
d="M47 668v157h78q43 207 170 330t305 123q190 0 302 -126.5t140 -330.5h-323q-8 50 -36 82.5t-75 32.5q-77 0 -110 -111h166l-29 -157h-160v-41v-27h146l-29 -158h-98q29 -125 114 -125q47 0 75 32.5t36 82.5l323 4q-28 -204 -140 -330t-302 -126q-181 0 -308 125t-169 337
h-76v158h57v29v39h-57z" />
    <glyph glyph-name="dollar.lt" horiz-adv-x="1064" 
d="M387 -168v191q-150 32 -243.5 125t-118.5 237h387q28 -80 139 -80q42 0 71 19.5t29 50.5q0 36 -22.5 51t-73.5 25l-203 47q-145 34 -227 115.5t-82 234.5q0 148 93.5 250.5t250.5 136.5v186h307v-190q139 -34 221.5 -126.5t106.5 -227.5h-367q-37 73 -127 73
q-46 0 -74 -18t-28 -47q0 -27 16.5 -40t49.5 -22l233 -59q159 -42 236 -130t77 -233q0 -151 -94 -250t-250 -131v-188h-307z" />
    <glyph glyph-name="cent.lt" horiz-adv-x="1064" 
d="M61 485q0 173 88 297t242 168v205h307v-205q132 -36 211.5 -136t94.5 -241h-373q-3 33 -24.5 55.5t-59.5 22.5q-47 0 -75 -44t-28 -122t28 -122t75 -44q38 0 59.5 22.5t24.5 55.5h373q-15 -141 -94.5 -241t-211.5 -138v-186h-307v188q-154 43 -242 167.5t-88 297.5z" />
    <glyph glyph-name="sterling.lt" horiz-adv-x="1064" 
d="M537 860v-94h196v-289h-198q-3 -100 -41 -153h512v-324h-955v324h76q36 64 41 153h-117v289h117v78q0 195 112.5 314.5t311.5 119.5q190 0 302.5 -109t117.5 -288h-342q0 34 -16 55.5t-48 21.5q-69 0 -69 -98z" />
    <glyph glyph-name="yen.lt" horiz-adv-x="1064" 
d="M76 475v207h174l-236 575h414l113 -344l112 344h398l-242 -575h174v-207h-260v-80h260v-207h-260v-188h-387v188h-260v207h260v80h-260z" />
    <glyph glyph-name="florin.lt" horiz-adv-x="1064" 
d="M219 440v295h156l26 150q34 197 133 295t271 98q87 0 160 -25v-309q-27 12 -64 12q-46 0 -70 -22.5t-32 -69.5l-23 -129h146v-295h-197l-63 -360q-16 -95 -43 -163.5t-72 -122t-114.5 -80.5t-164.5 -27q-100 0 -170 24v264q27 -12 64 -12q79 0 94 92l68 385h-105z" />
    <glyph glyph-name="zero.lt" horiz-adv-x="1064" 
d="M532 -20q-159 0 -272.5 83t-170 228t-56.5 338t56.5 338t170 228t272.5 83t273 -83t170.5 -228t56.5 -338t-56.5 -338t-170.5 -228t-273 -83zM532 934q-36 0 -60 -25t-35.5 -71t-16 -95t-4.5 -114t4.5 -114t16 -95t35.5 -71t60 -25t60.5 25t36 71t16 95t4.5 114t-4.5 114
t-16 95t-36 71t-60.5 25z" />
    <glyph glyph-name="one.lt" horiz-adv-x="1064" 
d="M98 0v340h287v504l-270 -131v368l379 176h276v-917h231v-340h-903z" />
    <glyph glyph-name="two.lt" horiz-adv-x="1064" 
d="M606 840q0 36 -21.5 59t-54.5 23q-36 0 -56.5 -22.5t-22.5 -53.5h-410q9 88 46.5 166t98 137.5t149 94t193.5 34.5q217 0 349.5 -112.5t132.5 -293.5q0 -60 -17.5 -114t-53 -102.5t-71 -84.5t-90.5 -84l-170 -147h398v-340h-957v254l467 438q49 45 69.5 77.5t20.5 70.5z
" />
    <glyph glyph-name="three.lt" horiz-adv-x="1064" 
d="M428 498v270h66q129 0 129 94q0 39 -24.5 63.5t-66.5 24.5q-44 0 -72 -30t-34 -74h-375q9 88 47 165.5t99.5 137t153 94.5t200.5 35q204 0 326 -111.5t122 -294.5q0 -69 -35.5 -138.5t-84.5 -104.5q63 -32 98 -98.5t35 -151.5q0 -176 -127.5 -287.5t-339.5 -111.5
q-226 0 -360 119.5t-146 320.5h397q3 -50 29 -79.5t74 -29.5q40 0 67 25.5t27 66.5q0 95 -127 95h-78z" />
    <glyph glyph-name="four.lt" horiz-adv-x="1064" 
d="M713 1257l-283 -720h119v163h342v-163h139v-320h-139v-217h-332v217h-534v297l327 743h361z" />
    <glyph glyph-name="five.lt" horiz-adv-x="1064" 
d="M545 524q-55 0 -105 -43h-342v776h822v-333h-496v-119q86 31 162 31q205 0 319.5 -114.5t114.5 -301.5q0 -201 -129 -320.5t-346 -119.5q-224 0 -357 119.5t-145 320.5h395q3 -45 34.5 -76t80.5 -31q41 0 70.5 29.5t29.5 75.5q0 45 -28 75.5t-80 30.5z" />
    <glyph glyph-name="six.lt" horiz-adv-x="1064" 
d="M414 420q0 -55 38 -91t95 -36q56 0 94.5 36t38.5 91q0 56 -38.5 92.5t-94.5 36.5q-57 0 -95 -36t-38 -93zM1022 889h-367q-21 65 -96 65q-66 0 -104 -51.5t-41 -122.5v-2q60 53 198 53q189 0 304.5 -113t115.5 -288q0 -198 -134 -324t-353 -126q-123 0 -223.5 50.5
t-165.5 137.5q-121 159 -121 432q0 198 59.5 350t178.5 240t282 88q192 0 316 -106t151 -283z" />
    <glyph glyph-name="seven.lt" horiz-adv-x="1064" 
d="M1010 1001l-353 -1001h-399l328 920h-531v337h955v-256z" />
    <glyph glyph-name="eight.lt" horiz-adv-x="1064" 
d="M532 281q51 0 84 28.5t33 71.5q0 44 -33 72t-84 28t-83.5 -28t-32.5 -72q0 -43 32.5 -71.5t83.5 -28.5zM532 791q49 0 80 28t31 70q0 43 -31 71.5t-80 28.5t-79.5 -28.5t-30.5 -71.5q0 -42 30.5 -70t79.5 -28zM532 -20q-138 0 -250 43t-179.5 128.5t-67.5 198.5
q0 100 51 174t135 107q-72 40 -108.5 110t-36.5 156q0 120 64 208t166 130.5t226 42.5t226 -42.5t166.5 -130.5t64.5 -208q0 -86 -36.5 -156t-108.5 -110q84 -33 135 -107t51 -174q0 -113 -67.5 -198.5t-180 -128.5t-250.5 -43z" />
    <glyph glyph-name="nine.lt" horiz-adv-x="1064" 
d="M651 838q0 55 -38 91t-95 36q-56 0 -94.5 -36t-38.5 -91q0 -56 38.5 -92.5t94.5 -36.5q57 0 95 36t38 93zM43 369h367q21 -66 96 -66q66 0 104 51.5t41 122.5v2q-60 -53 -198 -53q-189 0 -304.5 113t-115.5 288q0 199 134 325t353 126q123 0 223.5 -50.5t165.5 -137.5
q121 -159 121 -433q0 -198 -59.5 -350t-178.5 -239.5t-282 -87.5q-192 0 -316 106t-151 283z" />
    <glyph glyph-name="period.tab" horiz-adv-x="532" 
d="M47 207q0 95 63 158t154 63q93 0 156 -63t63 -158q0 -94 -63.5 -157.5t-155.5 -63.5q-91 0 -154 64t-63 157z" />
    <glyph glyph-name="comma.tab" horiz-adv-x="532" 
d="M43 -205l156 240q-63 13 -107.5 63t-44.5 125q0 89 62.5 147t156.5 58q91 0 154 -60.5t63 -166.5q0 -107 -88 -240l-108 -166h-244z" />
    <glyph glyph-name="colon.tab" horiz-adv-x="532" 
d="M47 207q0 95 63 158t154 63q93 0 156 -63t63 -158q0 -94 -63.5 -157.5t-155.5 -63.5q-91 0 -154 64t-63 157zM47 709q0 95 63 158t154 63q93 0 156 -63t63 -158q0 -94 -63.5 -158t-155.5 -64q-91 0 -154 64t-63 158z" />
    <glyph glyph-name="semicolon.tab" horiz-adv-x="532" 
d="M43 -205l156 240q-63 13 -107.5 63t-44.5 125q0 89 62.5 147t156.5 58q91 0 154 -60.5t63 -166.5q0 -107 -88 -240l-108 -166h-244zM47 709q0 95 63 158t154 63q93 0 156 -63t63 -158q0 -94 -63.5 -158t-155.5 -64q-91 0 -154 64t-63 158z" />
    <glyph glyph-name="space.tab" horiz-adv-x="532" 
 />
    <glyph glyph-name="percent.lt" horiz-adv-x="1064" 
d="M39 1022q0 106 74 181t178 75q106 0 181 -75t75 -181q0 -104 -75 -178t-181 -74q-104 0 -178 74t-74 178zM213 1022q0 -32 23 -55t55 -23q34 0 58 23t24 55q0 34 -24 58t-58 24q-32 0 -55 -24t-23 -58zM1026 236q0 -106 -74 -181t-178 -75q-106 0 -181 75t-75 181
q0 104 75 177.5t181 73.5q104 0 178 -73.5t74 -177.5zM852 236q0 32 -23 54.5t-55 22.5q-34 0 -58 -22.5t-24 -54.5q0 -34 24 -58t58 -24q32 0 55 24t23 58zM39 0l797 1257h190l-797 -1257h-190z" />
    <glyph glyph-name="perthousand.lt" horiz-adv-x="1638" 
d="M35 0l878 1257h191l-879 -1257h-190zM250 1022q0 -32 23 -55t55 -23q34 0 58 23t24 55q0 34 -24 58t-58 24q-32 0 -55 -24t-23 -58zM1063 236q0 -106 -74 -181t-178 -75q-106 0 -181 75t-75 181q0 104 75 177.5t181 73.5q104 0 178 -73.5t74 -177.5zM889 236
q0 32 -23 54.5t-55 22.5q-34 0 -58 -22.5t-24 -54.5q0 -34 24 -58t58 -24q32 0 55 24t23 58zM76 1022q0 106 74 181t178 75q106 0 181 -75t75 -181q0 -104 -75 -178t-181 -74q-104 0 -178 74t-74 178zM1604 236q0 -106 -74 -181t-178 -75q-106 0 -181 75t-75 181
q0 104 75 177.5t181 73.5q104 0 178 -73.5t74 -177.5zM1430 236q0 32 -23.5 54.5t-54.5 22.5q-34 0 -58 -22.5t-24 -54.5q0 -34 24 -58t58 -24q31 0 54.5 24.5t23.5 57.5z" />
    <glyph glyph-name="plus.lt" horiz-adv-x="1064" 
d="M391 1100h281v-346h346v-281h-346v-346h-281v346h-346v281h346v346z" />
    <glyph glyph-name="minus.lt" horiz-adv-x="1064" 
d="M45 473v281h973v-281h-973z" />
    <glyph glyph-name="multiply.lt" horiz-adv-x="1064" 
d="M334 612l-246 244l199 199l245 -244l244 244l199 -199l-244 -244l244 -245l-199 -197l-244 244l-245 -244l-199 197z" />
    <glyph glyph-name="divide.lt" horiz-adv-x="1064" 
d="M45 473v281h973v-281h-973zM346 995q0 75 54.5 128t131.5 53t132 -53t55 -128t-55 -127.5t-132 -52.5t-131.5 52.5t-54.5 127.5zM346 229q0 75 54.5 128t131.5 53t132 -53t55 -128t-55 -127.5t-132 -52.5t-131.5 52.5t-54.5 127.5z" />
    <glyph glyph-name="equal.lt" horiz-adv-x="1064" 
d="M45 287v248h973v-248h-973zM45 700v250h973v-250h-973z" />
    <glyph glyph-name="less.lt" horiz-adv-x="1064" 
d="M162 438v340l741 314v-310l-475 -174l475 -174v-309z" />
    <glyph glyph-name="greater.lt" horiz-adv-x="1064" 
d="M903 778v-340l-741 -313v309l475 174l-475 174v310z" />
    <glyph glyph-name="plusminus.lt" horiz-adv-x="1064" 
d="M408 1176h247v-256h340v-246h-340v-256h-247v256h-338v246h338v256zM70 70v245h925v-245h-925z" />
    <glyph glyph-name="lessequal.lt" horiz-adv-x="1064" 
d="M162 600v330l741 244v-293l-475 -115l475 -119v-291zM162 49v268h741v-268h-741z" />
    <glyph glyph-name="greaterequal.lt" horiz-adv-x="1064" 
d="M903 930v-330l-741 -244v291l475 119l-475 115v293zM903 317v-268h-741v268h741z" />
    <glyph glyph-name="notequal.lt" horiz-adv-x="1064" 
d="M45 700v250h578l114 187h226l-115 -187h170v-250h-324l-102 -165h426v-248h-578l-114 -189h-226l115 189h-170v248h322l102 165h-424z" />
    <glyph glyph-name="approxequal.lt" horiz-adv-x="1064" 
d="M45 637v260q133 86 260 86q83 0 222.5 -42t222.5 -42q137 0 268 88v-262q-138 -86 -268 -86q-83 0 -222.5 42t-222.5 42q-127 0 -260 -86zM45 242v260q131 88 260 88q83 0 222.5 -43t222.5 -43q131 0 268 88v-262q-138 -86 -268 -86q-83 0 -222.5 43t-222.5 43
q-124 0 -260 -88z" />
    </font>
</defs>
</svg>
